ДМБ (2000) DVDRip

<<   |   ?¿   |  >>
Информация о фильме
Название: ДМБ
Оригинальное название: ДМБ
Год выхода: 2000
Жанр: комедия
Режиссер: Роман Качанов
В ролях: Станислав Дужников, Александр Белявский, Юозас Будрайтис, Виктор Павлов, Иван Охлобыстин, Сергей Габриэлян, Сергей Арцибашев, Роман Качанов, Петр Коршунков, Дмитрий Неживой
О фильме:
Студент Штык соблазнил профессорскую жену; рабочий парень Бомба спалил до тла родной завод; завсегдатай казино Пуля скрывается от кредиторов — всем одна дорога — на призывной пункт. Там их учат, что в человеке должно быть все прекрасно — погоны, кокарда, исподнее — иначе ты не человек, а млекопитающее.Для настоящего мужчины нет лучше места, чем родная армия. А рано или поздно, «дембельский поезд» — «чух — чух — чух» — доставит тебя домой, и ты бесповоротно поймешь, что до армии был ничем, а теперь, по крайней мере, стал всем.

IMDB

Выпущено: компания-производитель
Продолжительность: часы:минуты:секунды
Перевод: не нужен

Файл
Формат: AVI
Качество: DVDRip
Видео: 640x400 (1.60:1), 25 fps, XviD build 64 ~1099 kbps avg, 0.17 bit/pixel
Звук: 48 kHz, MPEG Layer 3, 2 ch, ~128.00 kbps avg

General
Complete name : D:\Релизы\(2000) ДМБ.avi
Format : AVI
Format/Info : Audio Video Interleave
File size : 743 MiB
Duration : 1h 23mn
Overall bit rate : 1 237 Kbps
Writing application : VirtualDubMod 1.5.10.3 | www.virtualdub-fr.org || (build 2550/release)
Writing library : VirtualDubMod build 2550/release
Video
ID : 0
Format : MPEG-4 Visual
Format profile : Advanced Simple@L5
Format settings, BVOP : 1
Format settings, QPel : No
Format settings, GMC : No warppoints
Format settings, Matrix : Custom
Codec ID : XVID
Codec ID/Hint : XviD
Duration : 1h 23mn
Bit rate : 1 100 Kbps
Width : 640 pixels
Height : 400 pixels
Display aspect ratio : 1.600
Frame rate : 25.000 fps
Color space : YUV
Chroma subsampling : 4:2:0
Bit depth : 8 bits
Scan type : Progressive
Compression mode : Lossy
Bits/(Pixel*Frame) : 0.172
Stream size : 661 MiB (89%)
Writing library : XviD 64
Audio
ID : 1
Format : MPEG Audio
Format version : Version 1
Format profile : Layer 3
Mode : Joint stereo
Mode extension : MS Stereo
Codec ID : 55
Codec ID/Hint : MP3
Duration : 1h 23mn
Bit rate mode : Constant
Bit rate : 128 Kbps
Channel(s) : 2 channels
Sampling rate : 48.0 KHz
Compression mode : Lossy
Stream size : 76.5 MiB (10%)
Alignment : Aligned on interleaves
Interleave, duration : 40 ms (1.00 video frame)
Interleave, preload duration : 504 ms
Файл: (2000) ДМБ.avi.torrent
Дата добавления:05 Октябрь 2012, 11:07:11
Размер:743.24 MB
Комментариев:0
Хеш-сумма:E4EF93ABF0A61BB21C4825DF03BE25B0A713356A
Сидер замечен:02 Январь 2018, 15:55:58
Просмотров:924
.torrent взят:267 раз(а)
Статус: проверено
Оценка:Никто ещё не поставил оценку
Теги:

Комментарии

Пока комментариев нет

Добавить комментарий

Файлы для обмена предоставлены пользователями сайта. Администрация не несёт ответственности за их содержание. На сервере хранятся только торрент-файлы. Это значит, что мы не храним никаких нелегальных материалов, а так же материалов, охраняемых авторским правом.