Адреналин: Дилогия / Crank: Dilogy (2006-2009) BDRip 720p от NoLimits-Team

<<   |   ?¿   |  >>
Адреналин: Дилогия / Crank: Dilogy (2006-2009) BDRip 720p от NoLimits-Team
Информация о фильме
Название : Адреналин: Дилогия
Оригинальное название : Crank: Dilogy
Год выхода : 2006 | 2009
Жанр : Боевик , триллер , криминал
Режиссер : Марк Невелдин, Брайан Тэйлор
Продолжительность : 01:27:42 | 01:35:50
Релиз Группа | Автор Рипа :  

Википедия


Информация о фильме
Название : Адреналин
Оригинальное название : Crank
Год выхода : 2006
Жанр : боевик, триллер, криминал
Режиссер : Марк Невелдин, Брайан Тэйлор
Выпущено : США
Продолжительность : 01:27:42
Перевод : Дублированный , Английский
В ролях : Джейсон Стэтхэм, Эми Смарт, Хосе Пабло Кантилльо, Эфрен Рамирез, Дуайт Йокем, Карлос Санс, Рено Уилсон, Еди Касеги, Гленн Хоуертон, Джей Ксала
Сюжет фильма
Наемный убийца Чев узнает, что недоброжелатели отравили его редким китайским ядом и отрава начнет действовать немедленно, как только пульс перестанет биться ниже определенной отметки.
И теперь Чеву нужно успеть сделать все свои дела, попробовать раздобыть противоядие и отомстить своим отравителям в прямом смысле слова впопыхах — стараясь создавать вокруг себя как можно более напряженную обстановку и не расслабляться ни на секунду.
Файл
Качество : BDRip 720p (DVD5) (исходник Blu-Ray)
Видео : 1280x720 , 5848 Кбит/сек, 23,976 кадр/сек, AVC, x264, High@L4.1, 16:9, 0.265 Бит/[Пиксели*Кадры], 2pass
Аудио 1 : AC-3, 640 Кбит/сек, 6 канала(ов), 48,0 КГц - Дублированный (Установлен по умолчанию)
Аудио 2 : AC-3, 640 Кбит/сек, 6 канала(ов), 48,0 КГц - Английский
Субтитры : Русские | Полные (16+)
Чаптеры : Есть


Format : Matroska
Format version : Version 4 / Version 2
File size : 4.36 GiB
Duration : 1h 27mn
Overall bit rate : 7 124 Kbps
Movie name : Адреналин.(2006).BDRip.720p.(DVD5).[NoLimits-Team]
Encoded date : UTC 2013-04-15 04:21:57
Writing application : mkvmerge v6.0.0 ('Coming Up For Air') built on Jan 20 2013 09:52:00
Writing library : libebml v1.3.0 + libmatroska v1.4.0
Video
ID : 1
Format : AVC
Format/Info : Advanced Video Codec
Format profile : High@L4.1
Format settings, CABAC : Yes
Format settings, ReFrames : 9 frames
Codec ID : V_MPEG4/ISO/AVC
Duration : 1h 27mn
Bit rate : 5 848 Kbps
Width : 1 280 pixels
Height : 720 pixels
Display aspect ratio : 16:9
Frame rate mode : Constant
Frame rate : 23.976 fps
Color space : YUV
Chroma subsampling : 4:2:0
Bit depth : 8 bits
Scan type : Progressive
Bits/(Pixel*Frame) : 0.265
Stream size : 3.49 GiB (80%)
Title : Адреналин.(2006).BDRip.720p.(DVD5).[NoLimits-Team]
Writing library : x264 core 130 r2273 b3065e6
Encoding settings : cabac=1 / ref=9 / deblock=1:0:0 / analyse=0x3:0x133 / me=umh / subme=11 / psy=1 / psy_rd=1.00:0.00 / mixed_ref=1 / me_range=64 / chroma_me=1 / trellis=2 / 8x8dct=1 / cqm=0 / deadzone=21,11 / fast_pskip=0 / chroma_qp_offset=-2 / threads=9 / lookahead_threads=2 / sliced_threads=0 / nr=0 / decimate=1 / interlaced=0 / bluray_compat=0 / constrained_intra=0 / bframes=14 / b_pyramid=2 / b_adapt=2 / b_bias=0 / direct=3 / weightb=1 / open_gop=0 / weightp=2 / keyint=240 / keyint_min=23 / scenecut=40 / intra_refresh=0 / rc_lookahead=60 / rc=2pass / mbtree=1 / bitrate=5848 / ratetol=1.0 / qcomp=0.60 / qpmin=0 / qpmax=69 / qpstep=4 / cplxblur=20.0 / qblur=0.5 / ip_ratio=1.40 / aq=1:1.00
Language : English
Default : Yes
Forced : No
Audio #1
ID : 2
Format : AC-3
Format/Info : Audio Coding 3
Mode extension : CM (complete main)
Format settings, Endianness : Big
Codec ID : A_AC3
Duration : 1h 27mn
Bit rate mode : Constant
Bit rate : 640 Kbps
Channel(s) : 6 channels
Channel positions : Front: L C R, Side: L R, LFE
Sampling rate : 48.0 KHz
Bit depth : 16 bits
Compression mode : Lossy
Stream size : 401 MiB (9%)
Title : Дублированный
Language : Russian
Default : Yes
Forced : No
Audio #2
ID : 3
Format : AC-3
Format/Info : Audio Coding 3
Mode extension : CM (complete main)
Format settings, Endianness : Big
Codec ID : A_AC3
Duration : 1h 27mn
Bit rate mode : Constant
Bit rate : 640 Kbps
Channel(s) : 6 channels
Channel positions : Front: L C R, Side: L R, LFE
Sampling rate : 48.0 KHz
Bit depth : 16 bits
Compression mode : Lossy
Stream size : 401 MiB (9%)
Title : Английский
Language : English
Default : No
Forced : No
Text
ID : 4
Format : UTF-8
Codec ID : S_TEXT/UTF8
Codec ID/Info : UTF-8 Plain Text
Title : Русские (полные)
Language : Russian
Default : No
Forced : No
Menu
00:00:00.000 : :Chapter 01
00:06:46.114 : :Chapter 02
00:13:48.077 : :Chapter 03
00:17:12.281 : :Chapter 04
00:21:58.608 : :Chapter 05
00:26:43.935 : :Chapter 06
00:35:02.683 : :Chapter 07
00:39:16.354 : :Chapter 08
00:46:21.195 : :Chapter 09
00:53:55.232 : :Chapter 10
01:01:00.573 : :Chapter 11
01:06:40.287 : :Chapter 12
01:11:48.721 : :Chapter 13
01:15:10.756 : :Chapter 14
01:17:17.299 : :Chapter 15
01:20:10.722 : :Chapter 16

Информация о фильме
Название : Адреналин 2: Высокое напряжение
Оригинальное название : Crank: High Voltage
Год выхода : 2009
Жанр : Боевик , триллер , криминал
Режиссер : Марк Невелдайн, Брайан Тейлор
Выпущено : США
Продолжительность : 01:35:50
Перевод : Дублированный , Английский
В ролях : Джейсон Стэтхэм, Эми Смарт, Клифтон Коллинз мл., Бай Лин, Дэвид Кэррадайн, Кори Хэйм, Эфрен Рамирез, Дуайт Йоакам, Гленн Хоуертон, Холли Вебер
Сюжет фильма
Он умер, но обещал вернуться! Не чудом, а благодаря современным медицинским технологиям Чев Челиос получает новое сердце и новый шанс отомстить своим врагам. Теперь для постоянной подзарядки ему требуется электрический разряд мощностью не меньше, чем у автомобильного аккумулятора...
Файл
Качество : BDRip 720p (DVD5) (исходник Blu-Ray)
Видео : 1280x692 , 5243 Кбит/сек, 23,976 кадр/сек, AVC, x264, High@L4.1, 1.85:1, 0.247 Бит/[Пиксели*Кадры], 2pass
Аудио 1 : AC-3, 640 Кбит/сек, 6 канала(ов), 48,0 КГц - Дублированный (Установлен по умолчанию)
Аудио 2 : AC-3, 640 Кбит/сек, 6 канала(ов), 48,0 КГц - Английский
Субтитры : Русские | Полные (16+)
Чаптеры : Есть


Format : Matroska
Format version : Version 4 / Version 2
File size : 4.37 GiB
Duration : 1h 35mn
Overall bit rate : 6 523 Kbps
Movie name : Адреналин 2: Высокое напряжение.(2009).BDRip.720p.(DVD5).[NoLimits-Team]
Encoded date : UTC 2013-04-17 05:00:06
Writing application : mkvmerge v6.0.0 ('Coming Up For Air') built on Jan 20 2013 09:52:00
Writing library : libebml v1.3.0 + libmatroska v1.4.0
Video
ID : 1
Format : AVC
Format/Info : Advanced Video Codec
Format profile : High@L4.1
Format settings, CABAC : Yes
Format settings, ReFrames : 9 frames
Codec ID : V_MPEG4/ISO/AVC
Duration : 1h 35mn
Bit rate : 5 243 Kbps
Width : 1 280 pixels
Height : 692 pixels
Display aspect ratio : 1.85:1
Frame rate mode : Constant
Frame rate : 23.976 fps
Color space : YUV
Chroma subsampling : 4:2:0
Bit depth : 8 bits
Scan type : Progressive
Bits/(Pixel*Frame) : 0.247
Stream size : 3.42 GiB (78%)
Title : Адреналин 2: Высокое напряжение.(2009).BDRip.720p.(DVD5).[NoLimits-Team]
Writing library : x264 core 130 r2273 b3065e6
Encoding settings : cabac=1 / ref=9 / deblock=1:0:0 / analyse=0x3:0x133 / me=umh / subme=11 / psy=1 / psy_rd=1.00:0.00 / mixed_ref=1 / me_range=64 / chroma_me=1 / trellis=2 / 8x8dct=1 / cqm=0 / deadzone=21,11 / fast_pskip=0 / chroma_qp_offset=-2 / threads=9 / lookahead_threads=2 / sliced_threads=0 / nr=0 / decimate=1 / interlaced=0 / bluray_compat=0 / constrained_intra=0 / bframes=14 / b_pyramid=2 / b_adapt=2 / b_bias=0 / direct=3 / weightb=1 / open_gop=0 / weightp=2 / keyint=240 / keyint_min=23 / scenecut=40 / intra_refresh=0 / rc_lookahead=60 / rc=2pass / mbtree=1 / bitrate=5243 / ratetol=1.0 / qcomp=0.60 / qpmin=0 / qpmax=69 / qpstep=4 / cplxblur=20.0 / qblur=0.5 / ip_ratio=1.40 / aq=1:1.00
Language : English
Default : Yes
Forced : No
Audio #1
ID : 2
Format : AC-3
Format/Info : Audio Coding 3
Mode extension : CM (complete main)
Format settings, Endianness : Big
Codec ID : A_AC3
Duration : 1h 35mn
Bit rate mode : Constant
Bit rate : 640 Kbps
Channel(s) : 6 channels
Channel positions : Front: L C R, Side: L R, LFE
Sampling rate : 48.0 KHz
Bit depth : 16 bits
Compression mode : Lossy
Stream size : 439 MiB (10%)
Title : Дублированный
Language : Russian
Default : Yes
Forced : No
Audio #2
ID : 3
Format : AC-3
Format/Info : Audio Coding 3
Mode extension : CM (complete main)
Format settings, Endianness : Big
Codec ID : A_AC3
Duration : 1h 35mn
Bit rate mode : Constant
Bit rate : 640 Kbps
Channel(s) : 6 channels
Channel positions : Front: L C R, Side: L R, LFE
Sampling rate : 48.0 KHz
Bit depth : 16 bits
Compression mode : Lossy
Stream size : 439 MiB (10%)
Title : Английский
Language : English
Default : No
Forced : No
Text
ID : 4
Format : UTF-8
Codec ID : S_TEXT/UTF8
Codec ID/Info : UTF-8 Plain Text
Title : Русские (полные)
Language : Russian
Default : No
Forced : No
Menu
00:00:00.000 : :Chapter 01
00:05:55.897 : :Chapter 02
00:09:38.494 : :Chapter 03
00:15:22.922 : :Chapter 04
00:20:45.452 : :Chapter 05
00:25:21.978 : :Chapter 06
00:29:07.620 : :Chapter 07
00:36:20.720 : :Chapter 08
00:42:15.658 : :Chapter 09
00:47:47.114 : :Chapter 10
00:50:10.090 : :Chapter 11
00:54:15.043 : :Chapter 12
01:01:00.740 : :Chapter 13
01:06:31.988 : :Chapter 14
01:15:19.431 : :Chapter 15
01:20:22.275 : :Chapter 16


Внимание!
В субтитрах присутствуют нецензурные выражения / слова / диалоги.
Галерея
img
img
img
img
img
Файл: Adrenalin.Dilogy.(2006-2009).BDRip.720p.(DVD5)..torrent
Дата добавления:02 Ноябрь 2018, 13:12:23
Размер:8.73 GB
Комментариев:0
Хеш-сумма:ECCC322578729681036F8F365AFCC871ED847795
Сидер замечен:14 Ноябрь 2018, 19:32:22
Просмотров:26
.torrent взят:15 раз(а)
Статус: проверено
Оценка:Никто ещё не поставил оценку
Теги:Джейсон Стэтхэм

Комментарии

Пока комментариев нет

Добавить комментарий

Файлы для обмена предоставлены пользователями сайта. Администрация не несёт ответственности за их содержание. На сервере хранятся только торрент-файлы. Это значит, что мы не храним никаких нелегальных материалов, а так же материалов, охраняемых авторским правом.