Такси 2 / Taxi 2 (Жерар Кравчик / Gérard Krawczyk) (2000) BDRip-AVC

<<   |   ?¿   |  >>
Год выпуска: 2000
Страна: Франция
Жанр: боевик, комедия, криминал
Продолжительность: 01:28:25
Перевод: профессиональный (полное дублирование)
Субтитры: русские
Режиссер: Жерар Кравчик / Gérard Krawczyk
В ролях: Сами Насери, Фредерик Дифенталь, Марион Котийяр, Эмма Сьоберг, Бернар Фарси, Жан-Кристоф Буве, Фредерик Тирмон, Марк Фор, Хирата Харухико, Цую Симидзу
Описание: Во Францию прибывает министр обороны Японии. Цель его визита — ознакомиться с французским опытом борьбы с терроризмом и подписать «контракт века» о взаимном сотрудничестве.
Неожиданно во время показательных выступлений французской полиции министра обороны похищает гангстерская группировка «Якудза», желающая сорвать заключение наиважнейшего контракта. Даниэль и Эмильен отправляются на поиски высокого гостя. В дело вступает уже хорошо знакомое нам такси…

Доп. информация:
IMDb: 6.3/10
Kinopoisk: 7.672/10

  • При съёмках финальной сцены фильма погиб член операторской группы Ален Дютарте.
Качество: BDRip-AVC (Blu-ray)
Формат: MKV
Видео кодек: H.264
Аудио кодек: AC3
Видео: 1120x476 (2.35:1), 3793 kbps, 23.976 fps
Аудио №1: Russian , AC3, 6ch, 48 kHz, 448 kbps (Дубляж )
Аудио №2: French , AC3, 6ch, 48 kHz, 448 kbps (Оригинал)
Субтитры: Russian, SRT

Format : Matroska
Format version : Version 2
File size : 2.90 GiB
Duration : 1h 28mn
Overall bit rate : 4 690 Kbps
Movie name : Taxi 2 (2000) BDRip
Encoded date : UTC 2012-10-05 16:46:11
Writing application : mkvmerge v5.8.0 ('No Sleep / Pillow') built on Sep 2 2012 15:37:04
Writing library : libebml v1.2.3 + libmatroska v1.3.0
Attachment : Yes
Video
ID : 1
Format : AVC
Format/Info : Advanced Video Codec
Format profile : High@L4.0
Format settings, CABAC : Yes
Format settings, ReFrames : 14 frames
Codec ID : V_MPEG4/ISO/AVC
Duration : 1h 28mn
Bit rate : 3 701 Kbps
Width : 1 120 pixels
Height : 476 pixels
Display aspect ratio : 2.35:1
Frame rate : 24.000 fps
Color space : YUV
Chroma subsampling : 4:2:0
Bit depth : 8 bits
Scan type : Progressive
Bits/(Pixel*Frame) : 0.289
Stream size : 2.29 GiB (79%)
Writing library : x264 core 128 r2216kMod 198a7ea
Encoding settings : cabac=1 / ref=14 / deblock=1:-3:-2 / analyse=0x3:0x133 / me=umh / subme=11 / psy=1 / fade_compensate=0.00 / psy_rd=1.10:0.03 / mixed_ref=1 / me_range=32 / chroma_me=1 / trellis=2 / 8x8dct=1 / cqm=0 / deadzone=21,11 / fast_pskip=0 / chroma_qp_offset=-3 / threads=6 / lookahead_threads=1 / sliced_threads=0 / nr=0 / decimate=1 / interlaced=0 / bluray_compat=0 / constrained_intra=0 / bframes=14 / b_pyramid=2 / b_adapt=2 / b_bias=0 / direct=1 / weightb=1 / open_gop=0 / weightp=2 / keyint=250 / keyint_min=24 / scenecut=40 / intra_refresh=0 / rc=crf / mbtree=0 / crf=19.6000 / qcomp=0.65 / qpmin=0 / qpmax=69 / qpstep=4 / ip_ratio=1.40 / pb_ratio=1.20 / aq=2:0.90
Language : French
Default : Yes
Forced : No
Matrix coefficients : BT.709-5, BT.1361, IEC 61966-2-4 709, SMPTE RP177
Audio #1
ID : 2
Format : AC-3
Format/Info : Audio Coding 3
Mode extension : CM (complete main)
Codec ID : A_AC3
Duration : 1h 28mn
Bit rate mode : Constant
Bit rate : 448 Kbps
Channel(s) : 6 channels
Channel positions : Front: L C R, Side: L R, LFE
Sampling rate : 48.0 KHz
Bit depth : 16 bits
Compression mode : Lossy
Stream size : 283 MiB (10%)
Title : Dub
Language : Russian
Default : Yes
Forced : No
Audio #2
ID : 3
Format : AC-3
Format/Info : Audio Coding 3
Mode extension : CM (complete main)
Codec ID : A_AC3
Duration : 1h 28mn
Bit rate mode : Constant
Bit rate : 448 Kbps
Channel(s) : 6 channels
Channel positions : Front: L C R, Side: L R, LFE
Sampling rate : 48.0 KHz
Bit depth : 16 bits
Compression mode : Lossy
Stream size : 283 MiB (10%)
Title : Original
Language : French
Default : No
Forced : No
Text
ID : 4
Format : UTF-8
Codec ID : S_TEXT/UTF8
Codec ID/Info : UTF-8 Plain Text
Language : Russian
Default : No
Forced : No
Menu
00:00:00.000 : en:00:00:00.000
00:07:29.750 : en:00:07:29.750
00:14:43.500 : en:00:14:43.500
00:23:18.417 : en:00:23:18.417
00:31:25.333 : en:00:31:25.333
00:39:41.000 : en:00:39:41.000
00:46:52.792 : en:00:46:52.792
00:54:17.083 : en:00:54:17.083
01:01:14.125 : en:01:01:14.125
01:08:10.333 : en:01:08:10.333
01:15:46.083 : en:01:15:46.083
01:23:34.125 : en:01:23:34.125
x264 [info]: frame I:1133 Avg QP:19.63 size: 75328 PSNR Mean Y:43.84 U:49.30 V:49.56 Avg:45.02 Global:44.47
x264 [info]: frame P:28167 Avg QP:21.51 size: 34219 PSNR Mean Y:42.23 U:48.10 V:48.27 Avg:43.46 Global:42.73
x264 [info]: frame B:98022 Avg QP:23.09 size: 14954 PSNR Mean Y:41.32 U:47.99 V:48.20 Avg:42.63 Global:41.88
x264 [info]: consecutive B-frames: 2.4% 3.0% 8.5% 21.1% 17.7% 37.5% 5.9% 1.4% 1.1% 0.5% 0.2% 0.2% 0.1% 0.1% 0.2%
x264 [info]: mb I I16..4: 4.9% 78.9% 16.2%
x264 [info]: mb P I16..4: 0.9% 15.9% 1.7% P16..4: 25.8% 32.4% 13.6% 2.1% 0.1% skip: 7.5%
x264 [info]: mb B I16..4: 0.1% 1.5% 0.2% B16..8: 39.2% 22.6% 5.2% direct: 7.1% skip:24.1% L0:42.3% L1:46.0% BI:11.7%
x264 [info]: 8x8 transform intra:84.7% inter:58.0%
x264 [info]: coded y,uvDC,uvAC intra: 92.6% 79.0% 44.4% inter: 41.5% 26.0% 1.5%
x264 [info]: i16 v,h,dc,p: 59% 18% 11% 12%
x264 [info]: i8 v,h,dc,ddl,ddr,vr,hd,vl,hu: 7% 7% 7% 11% 15% 14% 14% 12% 13%
x264 [info]: i4 v,h,dc,ddl,ddr,vr,hd,vl,hu: 10% 10% 5% 8% 15% 14% 15% 11% 12%
x264 [info]: i8c dc,h,v,p: 35% 28% 19% 19%
x264 [info]: Weighted P-Frames: Y:14.4% UV:7.5%
x264 [info]: ref P L0: 41.0% 12.6% 18.4% 6.6% 5.4% 3.6% 3.3% 1.7% 1.6% 1.3% 1.2% 1.0% 1.0% 0.9% 0.2% 0.0%
x264 [info]: ref B L0: 74.5% 10.8% 5.0% 2.7% 1.8% 1.5% 1.1% 0.7% 0.6% 0.5% 0.4% 0.3% 0.1%
x264 [info]: ref B L1: 93.8% 6.2%
x264 [info]: SSIM Mean Y:0.9616221 (14.159db)
x264 [info]: PSNR Mean Y:41.545 U:48.026 V:48.225 Avg:42.832 Global:42.070 kb/s:3792.66
x264 [info]: encoded 127322 frames, 4.54 fps, 3792.66 kb/s, duration 7:47:28.33

Галерея
img
img
img
img
img
Файл: Такси 2 Taxi 2 (Жерар Кравчик Gérard Krawczyk) 2000 BDRip-AVC.torrent
Дата добавления:31 Октябрь 2018, 18:46:43
Размер:2.9 GB
Комментариев:0
Хеш-сумма:49F4FA695028ADFF765FD18821E293E059F87DD8
Сидер замечен:14 Ноябрь 2018, 19:55:46
Просмотров:33
.torrent взят:20 раз(а)
Статус: проверено
Оценка:Никто ещё не поставил оценку
Теги:Такси Taxi Люк Бессон

Комментарии

Пока комментариев нет

Добавить комментарий

Файлы для обмена предоставлены пользователями сайта. Администрация не несёт ответственности за их содержание. На сервере хранятся только торрент-файлы. Это значит, что мы не храним никаких нелегальных материалов, а так же материалов, охраняемых авторским правом.