Ганнибал Лектер: Коллекция / Hannibal Lecter Collection (1986-2007) BDRip 1080p

<<   |   ?¿   |  >>
Жанр:   Триллер , криминал , детектив , драма
Год выпуска: 1986 / 1991 / 2001 / 2002 / 2007
Продолжительность: 02:00:06 / 01:58:32 / 02:11:23 / 02:04:26 / 2:10:32
Режиссёр: Майкл Манн, Джонатан Демме, Ридли Скотт, Бретт Рэтнер, Питер Веббер

Информация о фильме
Название: Охотник на людей
Оригинальное название: Manhunter
Год выхода: 1986
Жанр: Триллер, криминал, детектив
Режиссер: Майкл Манн
В ролях: Уильям Питерсен, Брайан Кокс, Том Нунен, Деннис Фарина, Ким Грайст, Джоан Аллен, Стивен Лэнг, Дэвид Симан, Бенджамин Хендриксон, Майкл Тэлботт
О фильме:
«Охотник на людей» — это завораживающее преследование маньяка-убийцы, получившего прозвище «Зубная фея». Идущий по следам этого опаснейшего преступника агент ФБР вынужден использовать единственный способ поиска: сотрудничая с доктором Ганнибалом Лектером, заключенным в тюремную психбольницу, он должен «войти» в кошмарный внутренний мир убийцы…
IMDb 
Страна: США
Студия: De Laurentiis Entertainment Group (DEG), Red Dragon Productions S.A.
Продолжительность: 02:00:06
Перевод: Профессиональный (двухголосый, закадровый) CP-Digital |R5| + Профессиональный (двухголосый закадровый) Екатеринбург Арт |VHS| + Авторский (одноголосый, закадровый) Андрей Гаврилов + Оригинал
Файл
Кодек: x264
Качество: BDRip 1080p (источник: Blu-ray Remux / 1080p)
Видео: 1920х818 (2.35:1), 11853 Kbps, 23.976 fps, 0.315 bit/pixel
Аудио #1: 48.0 kHz, AC3 Dolby Digital, 3/2 (L,C,R,l,r) + LFE ch, 448 kbps [Двухголосый, CP-Digital |R5|]
Аудио #2: 48.0 kHz, AC3 Dolby Digital, 2/0 (L,R) ch, 192 kbps [Двухголосый, Екатеринбург Арт |VHS|]
Аудио #3: 48.0 kHz, AC3 Dolby Digital, 3/2 (L,C,R,l,r) + LFE ch, 640 kbps [Авторский, А. Гаврилов]
Аудио #4: 48.0 kHz, AC3 Dolby Digital, 3/2 (L,C,R,l,r) + LFE ch, 640 kbps [Оригинал, Английский]
Субтитры: Русские [на расширенные моменты, полные], английские

Цитата
Кто-то  писал:
Дорожка №1 вышедшая на DVD от CP-Digital существенно отличалась от оригинала. Были как добавлены новые сцены и диалоги, так и удалены. Исходя из этого, естественно, присутствуют моменты без перевода. Они переведены русскими субтитрами.
За оцифровку перевода Екатеринбург Арт с VHS спасибо Fikaloid

x264 [info]: frame I:896 Avg QP:17.93 size:171069
x264 [info]: frame P:24788 Avg QP:20.47 size: 95048
x264 [info]: frame B:147085 Avg QP:22.33 size: 55516
General
Unique ID : 218066804139869809035356137711644960123 (0xA40E238832EA9EB1A7ADC5D38903E57B)
Complete name : E:Hannibal.Lecter.Collection.1986-2007.x264.BDRip.1080pManhunter.1986.x264.BDRip.1080p.Director's.Cut.mkv
Format : Matroska
Format version : Version 2
File size : 11.6 GiB
Duration : 2h 0mn
Overall bit rate : 13.8 Mbps
Encoded date : UTC 2014-02-20 17:09:00
Writing application : mkvmerge v5.8.0 ('No Sleep / Pillow') built on Sep 2 2012 15:37:04
Writing library : libebml v1.2.3 + libmatroska v1.3.0
Video
ID : 1
Format : AVC
Format/Info : Advanced Video Codec
Format profile : High@L4.1
Format settings, CABAC : Yes
Format settings, ReFrames : 5 frames
Codec ID : V_MPEG4/ISO/AVC
Duration : 2h 0mn
Bit rate : 11.9 Mbps
Width : 1 920 pixels
Height : 818 pixels
Display aspect ratio : 2.35:1
Frame rate mode : Constant
Frame rate : 23.976 fps
Color space : YUV
Chroma subsampling : 4:2:0
Bit depth : 8 bits
Scan type : Progressive
Bits/(Pixel*Frame) : 0.315
Stream size : 9.71 GiB (84%)
Writing library : x264 core 140 r2377 1ca7bb9
Encoding settings : cabac=1 / ref=5 / deblock=1:0:0 / analyse=0x3:0x133 / me=tesa / subme=11 / psy=1 / psy_rd=1.00:0.00 / mixed_ref=1 / me_range=32 / chroma_me=1 / trellis=2 / 8x8dct=1 / cqm=0 / deadzone=21,11 / fast_pskip=0 / chroma_qp_offset=-2 / threads=12 / lookahead_threads=3 / sliced_threads=0 / nr=0 / decimate=0 / interlaced=0 / bluray_compat=0 / constrained_intra=0 / bframes=10 / b_pyramid=2 / b_adapt=2 / b_bias=0 / direct=3 / weightb=0 / open_gop=0 / weightp=2 / keyint=240 / keyint_min=23 / scenecut=40 / intra_refresh=0 / rc=2pass / mbtree=0 / bitrate=11853 / ratetol=1.0 / qcomp=0.60 / qpmin=0 / qpmax=69 / qpstep=4 / cplxblur=20.0 / qblur=0.5 / ip_ratio=1.40 / pb_ratio=1.30 / aq=1:1.00
Language : English
Default : Yes
Forced : No
Audio #1
ID : 2
Format : AC-3
Format/Info : Audio Coding 3
Mode extension : CM (complete main)
Format settings, Endianness : Big
Codec ID : A_AC3
Duration : 2h 0mn
Bit rate mode : Constant
Bit rate : 448 Kbps
Channel count : 6 channels
Channel positions : Front: L C R, Side: L R, LFE
Sampling rate : 48.0 KHz
Bit depth : 16 bits
Compression mode : Lossy
Stream size : 385 MiB (3%)
Title : Двухголосый, CP-Digital |R5|
Language : Russian
Default : Yes
Forced : No
Audio #2
ID : 3
Format : AC-3
Format/Info : Audio Coding 3
Mode extension : CM (complete main)
Format settings, Endianness : Big
Codec ID : A_AC3
Duration : 2h 0mn
Bit rate mode : Constant
Bit rate : 192 Kbps
Channel count : 2 channels
Channel positions : Front: L R
Sampling rate : 48.0 KHz
Bit depth : 16 bits
Compression mode : Lossy
Stream size : 165 MiB (1%)
Title : Двухголосый, Екатеринбург Арт |VHS|
Language : Russian
Default : No
Forced : No
Audio #3
ID : 4
Format : AC-3
Format/Info : Audio Coding 3
Mode extension : CM (complete main)
Format settings, Endianness : Big
Codec ID : A_AC3
Duration : 2h 0mn
Bit rate mode : Constant
Bit rate : 640 Kbps
Channel count : 6 channels
Channel positions : Front: L C R, Side: L R, LFE
Sampling rate : 48.0 KHz
Bit depth : 16 bits
Compression mode : Lossy
Stream size : 550 MiB (5%)
Title : Авторский, А. Гаврилов
Language : Russian
Default : No
Forced : No
Audio #4
ID : 5
Format : AC-3
Format/Info : Audio Coding 3
Mode extension : CM (complete main)
Format settings, Endianness : Big
Codec ID : A_AC3
Duration : 2h 0mn
Bit rate mode : Constant
Bit rate : 640 Kbps
Channel count : 6 channels
Channel positions : Front: L C R, Side: L R, LFE
Sampling rate : 48.0 KHz
Bit depth : 16 bits
Compression mode : Lossy
Stream size : 550 MiB (5%)
Title : Оригинал, Английский
Language : English
Default : No
Forced : No
Text #1
ID : 6
Format : UTF-8
Codec ID : S_TEXT/UTF8
Codec ID/Info : UTF-8 Plain Text
Title : Русские [на расширенные моменты]
Language : Russian
Default : Yes
Forced : No
Text #2
ID : 7
Format : UTF-8
Codec ID : S_TEXT/UTF8
Codec ID/Info : UTF-8 Plain Text
Title : Русские [полные]
Language : Russian
Default : No
Forced : No
Text #3
ID : 8
Format : UTF-8
Codec ID : S_TEXT/UTF8
Codec ID/Info : UTF-8 Plain Text
Language : English
Default : No
Forced : No
Информация о фильме
Название: Молчание ягнят
Оригинальное название: The Silence of the Lambs
Год выхода: 1991
Жанр:   Триллер, криминал, детектив, драма
Режиссер: Джонатан Демме
В ролях: Джоди Фостер, Энтони Хопкинс, Брук Смит, Скотт Гленн, Тед Левайн, Энтони Хилд, Кейси Леммонс, Дайан Бэйкер, Чарльз Нэпьер, Роджер Корман
О фильме:
Психопат похищает и убивает молодых женщин по всему Среднему Западу Америки. ФБР, уверенное в том, что все преступления совершены одним и тем же человеком, поручает агенту Клариссе Стерлинг встретиться с заключенным-маньяком, который мог бы объяснить следствию психологические мотивы серийного убийцы и тем самым вывести на его след.
Заключенный, доктор психиатрии Ганнибал Лектер, отбывает наказание за убийства и каннибализм. Он согласен помочь Клариссе лишь в том случае, если она попотчует его больное воображение подробностями своей сложной личной жизни. Такие двусмысленные отношения не только порождают в душе Клариссы внутренний конфликт, но и сталкивают ее лицом к лицу с помешанным до гениальности убийцей.
Воплощение дьявола настолько сильно, что ей может не хватить мужества и стойкости, чтобы остановить его…
IMDb 
Страна: США
Студия: Orion Pictures Corporation, Strong Heart/Demme Production
Продолжительность: 01:58:32
Перевод: Дублированный |Blu-ray CEE| + Профессиональный (многоголосый, закадровый) Видеосервис + Авторский (одноголосый, закадровый) Юрий Сербин + Оригинал
Файл
Кодек: x264
Качество: BDRip 1080p (источник: HDCLUB / Blu-ray Remux / 1080p)
Видео: 1920х1038 (1.85:1), 11392 Kbps, 23.976 fps, 0.238 bit/pixel
Аудио #1: 48.0 kHz, AC3 Dolby Digital, 3/2 (L,C,R,l,r) + LFE ch, 640 kbps [Дубляж, Blu-ray CEE]
Аудио #2: 48.0 kHz, AC3 Dolby Digital, 3/2 (L,C,R,l,r) + LFE ch, 640 kbps [Многоголосый, Видеосервис]
Аудио #3: 48.0 kHz, AC3 Dolby Digital, 3/2 (L,C,R,l,r) + LFE ch, 640 kbps [Авторский, Ю. Сербин]
Аудио #4: 48.0 kHz, AC3 Dolby Digital, 3/2 (L,C,R,l,r) + LFE ch, 640 kbps [Оригинал, Английский]
Субтитры: Русские, английские
x264 [info]: frame I:883 Avg QP:17.13 size:174062
x264 [info]: frame P:32009 Avg QP:19.96 size: 98812
x264 [info]: frame B:137616 Avg QP:21.80 size: 49489
General
Unique ID : 222948324085795047839169404290463101754 (0xA7BA490C17DEE1A79CDEADF87796F33A)
Complete name : E:Hannibal.Lecter.Collection.1986-2007.x264.BDRip.1080pThe.Silence.of.the.Lambs.1991.x264.BDRip.1080p.mkv
Format : Matroska
Format version : Version 2
File size : 11.6 GiB
Duration : 1h 58mn
Overall bit rate : 14.0 Mbps
Encoded date : UTC 2014-02-15 08:56:18
Writing application : mkvmerge v5.8.0 ('No Sleep / Pillow') built on Sep 2 2012 15:37:04
Writing library : libebml v1.2.3 + libmatroska v1.3.0
Video
ID : 1
Format : AVC
Format/Info : Advanced Video Codec
Format profile : High@L4.1
Format settings, CABAC : Yes
Format settings, ReFrames : 4 frames
Codec ID : V_MPEG4/ISO/AVC
Duration : 1h 58mn
Bit rate : 11.4 Mbps
Width : 1 920 pixels
Height : 1 038 pixels
Display aspect ratio : 1.85:1
Frame rate mode : Constant
Frame rate : 23.976 fps
Color space : YUV
Chroma subsampling : 4:2:0
Bit depth : 8 bits
Scan type : Progressive
Bits/(Pixel*Frame) : 0.238
Stream size : 9.20 GiB (80%)
Writing library : x264 core 140 r2377 1ca7bb9
Encoding settings : cabac=1 / ref=4 / deblock=1:-2:-2 / analyse=0x3:0x133 / me=tesa / subme=11 / psy=1 / psy_rd=1.00:0.00 / mixed_ref=1 / me_range=32 / chroma_me=1 / trellis=2 / 8x8dct=1 / cqm=0 / deadzone=21,11 / fast_pskip=0 / chroma_qp_offset=-2 / threads=12 / lookahead_threads=3 / sliced_threads=0 / nr=0 / decimate=0 / interlaced=0 / bluray_compat=0 / constrained_intra=0 / bframes=10 / b_pyramid=2 / b_adapt=2 / b_bias=0 / direct=3 / weightb=0 / open_gop=0 / weightp=2 / keyint=240 / keyint_min=23 / scenecut=40 / intra_refresh=0 / rc=2pass / mbtree=0 / bitrate=11392 / ratetol=1.0 / qcomp=0.60 / qpmin=0 / qpmax=69 / qpstep=4 / cplxblur=20.0 / qblur=0.5 / ip_ratio=1.40 / pb_ratio=1.30 / aq=1:1.00
Language : English
Default : Yes
Forced : No
Audio #1
ID : 2
Format : AC-3
Format/Info : Audio Coding 3
Mode extension : CM (complete main)
Format settings, Endianness : Big
Codec ID : A_AC3
Duration : 1h 58mn
Bit rate mode : Constant
Bit rate : 640 Kbps
Channel count : 6 channels
Channel positions : Front: L C R, Side: L R, LFE
Sampling rate : 48.0 KHz
Bit depth : 16 bits
Compression mode : Lossy
Stream size : 543 MiB (5%)
Title : Дубляж, Blu-ray CEE
Language : Russian
Default : Yes
Forced : No
Audio #2
ID : 3
Format : AC-3
Format/Info : Audio Coding 3
Mode extension : CM (complete main)
Format settings, Endianness : Big
Codec ID : A_AC3
Duration : 1h 58mn
Bit rate mode : Constant
Bit rate : 640 Kbps
Channel count : 6 channels
Channel positions : Front: L C R, Side: L R, LFE
Sampling rate : 48.0 KHz
Bit depth : 16 bits
Compression mode : Lossy
Stream size : 543 MiB (5%)
Title : Многоголосый, Видеосервис
Language : Russian
Default : No
Forced : No
Audio #3
ID : 4
Format : AC-3
Format/Info : Audio Coding 3
Mode extension : CM (complete main)
Format settings, Endianness : Big
Codec ID : A_AC3
Duration : 1h 58mn
Bit rate mode : Constant
Bit rate : 640 Kbps
Channel count : 6 channels
Channel positions : Front: L C R, Side: L R, LFE
Sampling rate : 48.0 KHz
Bit depth : 16 bits
Compression mode : Lossy
Stream size : 543 MiB (5%)
Title : Авторский, Ю. Сербин
Language : Russian
Default : No
Forced : No
Audio #4
ID : 5
Format : AC-3
Format/Info : Audio Coding 3
Mode extension : CM (complete main)
Format settings, Endianness : Big
Codec ID : A_AC3
Duration : 1h 58mn
Bit rate mode : Constant
Bit rate : 640 Kbps
Channel count : 6 channels
Channel positions : Front: L C R, Side: L R, LFE
Sampling rate : 48.0 KHz
Bit depth : 16 bits
Compression mode : Lossy
Stream size : 543 MiB (5%)
Title : Оригинал, Английский
Language : English
Default : No
Forced : No
Text #1
ID : 6
Format : UTF-8
Codec ID : S_TEXT/UTF8
Codec ID/Info : UTF-8 Plain Text
Language : Russian
Default : No
Forced : No
Text #2
ID : 7
Format : UTF-8
Codec ID : S_TEXT/UTF8
Codec ID/Info : UTF-8 Plain Text
Language : English
Default : No
Forced : No
Menu
00:00:00.000 : en:00:00:00.000
00:05:16.274 : en:00:05:16.274
00:08:14.411 : en:00:08:14.411
00:11:48.583 : en:00:11:48.583
00:21:39.340 : en:00:21:39.340
00:26:58.826 : en:00:26:58.826
00:31:38.480 : en:00:31:38.480
00:34:59.848 : en:00:34:59.848
00:38:39.317 : en:00:38:39.317
00:41:14.389 : en:00:41:14.389
00:46:40.965 : en:00:46:40.965
00:49:43.981 : en:00:49:43.981
00:51:35.718 : en:00:51:35.718
00:57:45.337 : en:00:57:45.337
00:59:30.233 : en:00:59:30.233
01:01:09.875 : en:01:01:09.875
01:05:57.120 : en:01:05:57.120
01:14:14.200 : en:01:14:14.200
01:18:24.366 : en:01:18:24.366
01:21:11.617 : en:01:21:11.617
01:25:08.437 : en:01:25:08.437
01:27:16.022 : en:01:27:16.022
01:33:16.674 : en:01:33:16.674
01:36:41.045 : en:01:36:41.045
01:37:34.724 : en:01:37:34.724
01:39:57.116 : en:01:39:57.116
01:43:17.483 : en:01:43:17.483
01:51:04.658 : en:01:51:04.658
Информация о фильме
Название: Ганнибал
Оригинальное название: Hannibal
Год выхода: 2001
Жанр: триллер, драма, криминал, детектив
Режиссер: Ридли Скотт
В ролях: Энтони Хопкинс, Джулианна Мур, Гари Олдман, Рэй Лиотта, Джанкарло Джаннини, Фрэнки Фэйзон, Франческа Нери, Желько Иванек, Хазелль Гудман, Дэвид Эндрюс
О фильме:
По прошествии десяти лет тревожного молчания гениальный Ганнибал Лектер пишет письмо агенту ФБР Кларисе Старлинг, предлагая ей возобновить их прервавшуюся интеллектуальную дуэль.
С помощью миллионера Мейсона Верджера, ставшего очередной жертвой безумного доктора и мечтающего теперь скормить Лектера стае прожорливых кабанов, Клариса выходит на след неуловимого маньяка и вскоре узнает о том, что за ним уже охотится инспектор флорентийской полиции Риналдо Пацци, рассчитывающий получить за его поимку щедрое вознаграждение.
Но примитивные ловушки — слабая преграда для голодного каннибала, который все ближе подбирается к Кларисе, чтобы пригласить свою фаворитку на самую страшную трапезу в ее жизни…
IMDb 
Страна: Великобритания, США
Студия: Metro-Goldwyn-Mayer (MGM), Universal Pictures
Продолжительность: 02:11:23
Перевод: Дублированный + Профессиональный (двухголосый, закадровый) Карусель + Авторский (одноголосый, закадровый) Андрей Гаврилов + Оригинал
Файл
Кодек: x264
Качество: BDRip 1080p (источник: HDCLUB / Blu-ray Remux / 1080p)
Видео: 1920х1040 (1.85:1), 10223 Kbps, 23.976 fps, 0.214 bit/pixel
Аудио #1: 48.0 kHz, AC3 Dolby Digital, 3/2 (L,C,R,l,r) + LFE ch, 448 kbps [Дубляж]
Аудио #2: 48.0 kHz, AC3 Dolby Digital, 3/2 (L,C,R,l,r) + LFE ch, 640 kbps [Двухголосый, Карусель]
Аудио #3: 48.0 kHz, AC3 Dolby Digital, 3/2 (L,C,R,l,r) + LFE ch, 640 kbps [Авторский, А. Гаврилов]
Аудио #4: 48.0 kHz, AC3 Dolby Digital, 3/2 (L,C,R,l,r) + LFE ch, 640 kbps [Оригинал, Английский]
Субтитры: Русские, английские
x264 [info]: frame I:1293 Avg QP:14.69 size:164917
x264 [info]: frame P:38205 Avg QP:17.01 size: 86077
x264 [info]: frame B:149515 Avg QP:18.87 size: 43941
General
Unique ID : 239071506960290506165978388722722247315 (0xB3DB7F564ABC852C8288348FDBCF9293)
Complete name : E:Hannibal.Lecter.Collection.1986-2007.x264.BDRip.1080pHannibal.2001.x264.BDRip.1080p.mkv
Format : Matroska
Format version : Version 2
File size : 11.6 GiB
Duration : 2h 11mn
Overall bit rate : 12.6 Mbps
Encoded date : UTC 2014-02-15 12:11:41
Writing application : mkvmerge v5.8.0 ('No Sleep / Pillow') built on Sep 2 2012 15:37:04
Writing library : libebml v1.2.3 + libmatroska v1.3.0
Video
ID : 1
Format : AVC
Format/Info : Advanced Video Codec
Format profile : High@L4.1
Format settings, CABAC : Yes
Format settings, ReFrames : 4 frames
Codec ID : V_MPEG4/ISO/AVC
Duration : 2h 11mn
Bit rate : 10.2 Mbps
Width : 1 920 pixels
Height : 1 040 pixels
Display aspect ratio : 1.85:1
Frame rate mode : Constant
Frame rate : 23.976 fps
Color space : YUV
Chroma subsampling : 4:2:0
Bit depth : 8 bits
Scan type : Progressive
Bits/(Pixel*Frame) : 0.214
Stream size : 9.15 GiB (79%)
Writing library : x264 core 140 r2377 1ca7bb9
Encoding settings : cabac=1 / ref=4 / deblock=1:-3:-3 / analyse=0x3:0x133 / me=tesa / subme=11 / psy=1 / psy_rd=1.00:0.00 / mixed_ref=1 / me_range=32 / chroma_me=1 / trellis=2 / 8x8dct=1 / cqm=0 / deadzone=21,11 / fast_pskip=0 / chroma_qp_offset=-2 / threads=12 / lookahead_threads=2 / sliced_threads=0 / nr=0 / decimate=0 / interlaced=0 / bluray_compat=0 / constrained_intra=0 / bframes=8 / b_pyramid=2 / b_adapt=2 / b_bias=0 / direct=3 / weightb=0 / open_gop=0 / weightp=2 / keyint=240 / keyint_min=23 / scenecut=40 / intra_refresh=0 / rc=2pass / mbtree=0 / bitrate=10223 / ratetol=1.0 / qcomp=0.60 / qpmin=0 / qpmax=69 / qpstep=4 / cplxblur=20.0 / qblur=0.5 / ip_ratio=1.40 / pb_ratio=1.30 / aq=1:1.00
Language : English
Default : Yes
Forced : No
Audio #1
ID : 2
Format : AC-3
Format/Info : Audio Coding 3
Mode extension : CM (complete main)
Format settings, Endianness : Big
Codec ID : A_AC3
Duration : 2h 11mn
Bit rate mode : Constant
Bit rate : 448 Kbps
Channel count : 6 channels
Channel positions : Front: L C R, Side: L R, LFE
Sampling rate : 48.0 KHz
Bit depth : 16 bits
Compression mode : Lossy
Stream size : 421 MiB (4%)
Title : Дубляж
Language : Russian
Default : Yes
Forced : No
Audio #2
ID : 3
Format : AC-3
Format/Info : Audio Coding 3
Mode extension : CM (complete main)
Format settings, Endianness : Big
Codec ID : A_AC3
Duration : 2h 11mn
Bit rate mode : Constant
Bit rate : 640 Kbps
Channel count : 6 channels
Channel positions : Front: L C R, Side: L R, LFE
Sampling rate : 48.0 KHz
Bit depth : 16 bits
Compression mode : Lossy
Stream size : 601 MiB (5%)
Title : Двухголосый, Карусель
Language : Russian
Default : No
Forced : No
Audio #3
ID : 4
Format : AC-3
Format/Info : Audio Coding 3
Mode extension : CM (complete main)
Format settings, Endianness : Big
Codec ID : A_AC3
Duration : 2h 11mn
Bit rate mode : Constant
Bit rate : 640 Kbps
Channel count : 6 channels
Channel positions : Front: L C R, Side: L R, LFE
Sampling rate : 48.0 KHz
Bit depth : 16 bits
Compression mode : Lossy
Stream size : 601 MiB (5%)
Title : Авторский, А. Гаврилов
Language : Russian
Default : No
Forced : No
Audio #4
ID : 5
Format : AC-3
Format/Info : Audio Coding 3
Mode extension : CM (complete main)
Format settings, Endianness : Big
Codec ID : A_AC3
Duration : 2h 11mn
Bit rate mode : Constant
Bit rate : 640 Kbps
Channel count : 6 channels
Channel positions : Front: L C R, Side: L R, LFE
Sampling rate : 48.0 KHz
Bit depth : 16 bits
Compression mode : Lossy
Stream size : 601 MiB (5%)
Title : Оригинал, Английский
Language : English
Default : No
Forced : No
Text #1
ID : 6
Format : UTF-8
Codec ID : S_TEXT/UTF8
Codec ID/Info : UTF-8 Plain Text
Language : Russian
Default : No
Forced : No
Text #2
ID : 7
Format : UTF-8
Codec ID : S_TEXT/UTF8
Codec ID/Info : UTF-8 Plain Text
Language : English
Default : No
Forced : No
Menu
00:00:00.000 : en:Barney's Observations
00:03:01.055 : en:Main Titles
00:05:06.180 : en:The Fish Market
00:10:41.641 : en:An Ugly Mess
00:14:04.510 : en:A Good Deal
00:16:52.428 : en:Mason Verger
00:22:54.956 : en:Hannibal the Cannibal
00:24:17.914 : en:Catching Up with Barney
00:28:57.902 : en:Dr. Fell
00:36:07.498 : en:Tracing Lecter's Scent
00:38:35.396 : en:Pazzi on the Case
00:43:39.116 : en:Krendler's Terms
00:47:30.806 : en:Possibly Illegal Action
00:50:34.990 : en:Family History
00:54:41.611 : en:Fingerprints
00:59:49.586 : en:Verger's Boys
01:02:31.873 : en:La Vita Nuova
01:06:42.665 : en:Lecter Found
01:10:15.502 : en:The Price of Avarice
01:15:34.530 : en:Pazzi's Destiny
01:21:41.688 : en:Starling in Distress
01:26:45.158 : en:Shopping Spree
01:30:14.242 : en:Deep Roller
01:33:46.954 : en:Cat and Mouse
01:39:03.395 : en:A Kidnapping
01:42:25.806 : en:Face to Face
01:45:59.227 : en:The Main Attraction
01:50:25.410 : en:Alone at Last
01:52:16.813 : en:Dinner
02:01:40.084 : en:That's My Girl
02:05:20.846 : en:In-Flight Service
02:07:09.622 : en:End Credits
Информация о фильме
Название: Красный дракон
Оригинальное название: Red Dragon
Год выхода: 2002
Жанр: триллер, драма, детектив
Режиссер: Бретт Рэтнер
В ролях: Энтони Хопкинс, Эдвард Нортон, Рэйф Файнс, Харви Кейтель, Эмили Уотсон, Мэри-Луиз Паркер, Филип Сеймур Хоффман, Энтони Хилд, Кен Люн, Фрэнки Фэйзон
О фильме:
Действие этой ленты разворачивается до событий, описанных в «Молчании ягнят» и до появления Клариссы Старлинг. Мы знакомимся с человеком, поймавшим Ганнибала Лектера, — специальным агентом ФБР Уиллом Грэмом. После ареста Лектера, который едва не стоил Грэму жизни, Уилл уходит со службы в Бюро.
Однако появление нового жуткого серийного убийцы заставляет Грэма вернуться на службу. Этот безжалостный монстр, которого пресса уже окрестила «Зубной Феей», ночами вырезает целые семейства. Теперь Уиллу нужен совет от опытного специалиста по психическим аномалиям, и он обращается за помощью к своему старому знакомому… доктору «Ганнибалу-каннибалу» Лектеру!
IMDb 
Страна: США, Германия
Студия: Metro-Goldwyn-Mayer (MGM), Universal Pictures
Продолжительность: 02:04:26
Перевод: Дублированный |Blu-ray CEE| + Профессиональный (двухголосый, закадровый) П. Гланц и И. Королёва + Авторский (одноголосый, закадровый) Андрей Гаврилов + Оригинал
Файл
Кодек: x264
Качество: BDRip 1080p (источник: HDCLUB / Blu-ray Disc / 1080p CEE)
Видео: 1920х806 (2.40:1), 10727 Kbps, 23.976 fps, 0.289 bit/pixel
Аудио #1: 48.0 kHz, AC3 Dolby Digital, 3/2 (L,C,R,l,r) + LFE ch, 640 kbps [Дубляж, Blu-ray CEE]
Аудио #2: 48.0 kHz, AC3 Dolby Digital, 3/2 (L,C,R,l,r) + LFE ch, 640 kbps [Двухголосый, П. Гланц и И. Королёва]
Аудио #3: 48.0 kHz, AC3 Dolby Digital, 3/2 (L,C,R,l,r) + LFE ch, 640 kbps [Авторский, А. Гаврилов]
Аудио #4: 48.0 kHz, AC3 Dolby Digital, 3/2 (L,C,R,l,r) + LFE ch, 640 kbps [Оригинал, Английский]
Субтитры: Русские, английские
x264 [info]: frame I:1238 Avg QP:17.14 size:180842
x264 [info]: frame P:31516 Avg QP:20.15 size: 86202
x264 [info]: frame B:146259 Avg QP:22.17 size: 48317
General
Unique ID : 242292811439051475365222672183363685347 (0xB647E5E8F735D48AA0E5A8DF2E34CBE3)
Complete name : E:Hannibal.Lecter.Collection.1986-2007.x264.BDRip.1080pRed.Dragon.2002.x264.BDRip.1080p.mkv
Format : Matroska
Format version : Version 2
File size : 11.5 GiB
Duration : 2h 4mn
Overall bit rate : 13.3 Mbps
Encoded date : UTC 2014-02-15 12:58:21
Writing application : mkvmerge v5.8.0 ('No Sleep / Pillow') built on Sep 2 2012 15:37:04
Writing library : libebml v1.2.3 + libmatroska v1.3.0
Video
ID : 1
Format : AVC
Format/Info : Advanced Video Codec
Format profile : High@L4.1
Format settings, CABAC : Yes
Format settings, ReFrames : 5 frames
Codec ID : V_MPEG4/ISO/AVC
Duration : 2h 4mn
Bit rate : 10.7 Mbps
Width : 1 920 pixels
Height : 806 pixels
Display aspect ratio : 2.40:1
Frame rate mode : Constant
Frame rate : 23.976 fps
Color space : YUV
Chroma subsampling : 4:2:0
Bit depth : 8 bits
Scan type : Progressive
Bits/(Pixel*Frame) : 0.289
Stream size : 9.09 GiB (79%)
Writing library : x264 core 140 r2377 1ca7bb9
Encoding settings : cabac=1 / ref=5 / deblock=1:-1:-1 / analyse=0x3:0x133 / me=tesa / subme=11 / psy=1 / psy_rd=1.00:0.00 / mixed_ref=1 / me_range=32 / chroma_me=1 / trellis=2 / 8x8dct=1 / cqm=0 / deadzone=21,11 / fast_pskip=0 / chroma_qp_offset=-2 / threads=12 / lookahead_threads=2 / sliced_threads=0 / nr=0 / decimate=0 / interlaced=0 / bluray_compat=0 / constrained_intra=0 / bframes=8 / b_pyramid=2 / b_adapt=2 / b_bias=0 / direct=3 / weightb=0 / open_gop=0 / weightp=2 / keyint=240 / keyint_min=23 / scenecut=40 / intra_refresh=0 / rc=2pass / mbtree=0 / bitrate=10727 / ratetol=1.0 / qcomp=0.60 / qpmin=0 / qpmax=69 / qpstep=4 / cplxblur=20.0 / qblur=0.5 / ip_ratio=1.40 / pb_ratio=1.30 / aq=1:1.00
Language : English
Default : Yes
Forced : No
Audio #1
ID : 2
Format : AC-3
Format/Info : Audio Coding 3
Mode extension : CM (complete main)
Format settings, Endianness : Big
Codec ID : A_AC3
Duration : 2h 4mn
Bit rate mode : Constant
Bit rate : 640 Kbps
Channel count : 6 channels
Channel positions : Front: L C R, Side: L R, LFE
Sampling rate : 48.0 KHz
Bit depth : 16 bits
Compression mode : Lossy
Stream size : 570 MiB (5%)
Title : Дубляж, Blu-ray CEE
Language : Russian
Default : Yes
Forced : No
Audio #2
ID : 3
Format : AC-3
Format/Info : Audio Coding 3
Mode extension : CM (complete main)
Format settings, Endianness : Big
Codec ID : A_AC3
Duration : 2h 4mn
Bit rate mode : Constant
Bit rate : 640 Kbps
Channel count : 6 channels
Channel positions : Front: L C R, Side: L R, LFE
Sampling rate : 48.0 KHz
Bit depth : 16 bits
Compression mode : Lossy
Stream size : 570 MiB (5%)
Title : Двухголосый, П. Гланц и И. Королёва
Language : Russian
Default : No
Forced : No
Audio #3
ID : 4
Format : AC-3
Format/Info : Audio Coding 3
Mode extension : CM (complete main)
Format settings, Endianness : Big
Codec ID : A_AC3
Duration : 2h 4mn
Bit rate mode : Constant
Bit rate : 640 Kbps
Channel count : 6 channels
Channel positions : Front: L C R, Side: L R, LFE
Sampling rate : 48.0 KHz
Bit depth : 16 bits
Compression mode : Lossy
Stream size : 570 MiB (5%)
Title : Авторский, А. Гаврилов
Language : Russian
Default : No
Forced : No
Audio #4
ID : 5
Format : AC-3
Format/Info : Audio Coding 3
Mode extension : CM (complete main)
Format settings, Endianness : Big
Codec ID : A_AC3
Duration : 2h 4mn
Bit rate mode : Constant
Bit rate : 640 Kbps
Channel count : 6 channels
Channel positions : Front: L C R, Side: L R, LFE
Sampling rate : 48.0 KHz
Bit depth : 16 bits
Compression mode : Lossy
Stream size : 570 MiB (5%)
Title : Оригинал, Английский
Language : English
Default : No
Forced : No
Text #1
ID : 6
Format : UTF-8
Codec ID : S_TEXT/UTF8
Codec ID/Info : UTF-8 Plain Text
Language : Russian
Default : No
Forced : No
Text #2
ID : 7
Format : UTF-8
Codec ID : S_TEXT/UTF8
Codec ID/Info : UTF-8 Plain Text
Language : English
Default : No
Forced : No
Menu
00:00:00.000 : en:Profile of a Killer
00:08:46.067 : en:Main Titles
00:11:11.962 : en:Crawford's Request
00:16:05.881 : en:Profiler
00:26:43.268 : en:The Lecter Option
00:29:02.407 : en:Just Like Old Times
00:36:58.049 : en:Living Proof
00:39:06.761 : en:Behold a Red Dragon
00:50:45.500 : en:Reba Mcclane
00:58:03.563 : en:The Notes
01:04:54.015 : en:Lecter's Message
01:08:27.103 : en:Rattling the Cage
01:11:26.282 : en:I Am the Dragon!
01:24:34.152 : en:Reba's Man
01:32:43.849 : en:The Dragon Defied
01:37:12.201 : en:The Blake Painting
01:40:46.040 : en:The Common Factor
01:44:40.524 : en:He Wants You...
01:52:54.017 : en:Facing the Dragon
02:00:06.741 : en:End Titles
Информация о фильме
Название: Ганнибал: Восхождение
Оригинальное название: Hannibal Rising
Год выхода: 2007
Жанр: Триллер, драма, криминал
Режиссер: Питер Веббер
В ролях: Гаспар Ульель, Гун Ли, Рис Иванс, Доминик Уэст, Кевин МакКидд, Ингеборга Дапкунайте, Ричард Лиф, Ааран Томас, Хелена Лиа Тачовска, Мишель Вэйд
О фильме:
Первая глава жизни самого знаменитого и хитроумного маньяка всех времен… Ему было шесть, когда на его глазах жестоко убили его семью. В двадцать, бежав во Францию, а затем в США, он получил блестящее образование психиатра. Впереди его ждала жизнь, полная привилегий. Но жажда мести за убийство семьи только разгоралась в нем…
IMDb 
Страна: Великобритания, Чехия, Франция, Италия
Студия: Young Hannibal Productions, Dino De Laurentiis Productions, Carthago Films S.a.r.l.
Продолжительность: 2:10:33
Перевод: Дублированный Парадиз + Профессиональный (многоголосый, закадровый) Киномания + Авторский (одноголосый, закадровый) С. Рябов + Оригинал
Файл
Кодек: x264
Качество: BDRip 1080p (источник: Blu-ray Remux / 1080p)
Видео: 1920х820 (2.35:1), 10301 Kbps, 23.976 fps, 0.273 bit/pixel
Аудио #1: 48.0 kHz, AC3 Dolby Digital, 3/2 (L,C,R,l,r) + LFE ch, 640 kbps [Дубляж, Парадиз]
Аудио #2: 48.0 kHz, AC3 Dolby Digital, 3/2 (L,C,R,l,r) + LFE ch, 448 kbps [Многоголосый, Киномания]
Аудио #3: 48.0 kHz, AC3 Dolby Digital, 3/2 (L,C,R,l,r) + LFE ch, 640 kbps [Авторский, С. Рябов]
Аудио #4: 48.0 kHz, AC3 Dolby Digital, 3/2 (L,C,R,l,r) + LFE ch, 640 kbps [Оригинал, Английский]
Субтитры: Русские [на расширенные моменты, полные], английские
Цитата
Кто-то  писал:
Поскольку, русский дубляж от &quot;Парадиз&quot; выходил лишь под театральную версию, то в данном расширенном варианте фильма присутствуют моменты без перевода, они переведены русскими субтитрами.

x264 [info]: frame I:1541 Avg QP:14.96 size:182418
x264 [info]: frame P:45236 Avg QP:17.36 size: 92491
x264 [info]: frame B:141022 Avg QP:19.38 size: 39832
General
Unique ID : 173992608791934568230462254742083635797 (0x82E5C1EDF953BEA484942EBDB67A8A55)
Complete name : E:Hannibal.Lecter.Collection.1986-2007.x264.BDRip.1080pHannibal.Rising.2007.x264.BDRip.1080p.Unrated.mkv
Format : Matroska
Format version : Version 2
File size : 11.6 GiB
Duration : 2h 10mn
Overall bit rate : 12.7 Mbps
Encoded date : UTC 2014-02-15 13:57:44
Writing application : mkvmerge v5.8.0 ('No Sleep / Pillow') built on Sep 2 2012 15:37:04
Writing library : libebml v1.2.3 + libmatroska v1.3.0
Video
ID : 1
Format : AVC
Format/Info : Advanced Video Codec
Format profile : High@L4.1
Format settings, CABAC : Yes
Format settings, ReFrames : 5 frames
Codec ID : V_MPEG4/ISO/AVC
Duration : 2h 10mn
Bit rate : 10.3 Mbps
Width : 1 920 pixels
Height : 820 pixels
Display aspect ratio : 2.35:1
Frame rate mode : Constant
Frame rate : 23.976 fps
Color space : YUV
Chroma subsampling : 4:2:0
Bit depth : 8 bits
Scan type : Progressive
Bits/(Pixel*Frame) : 0.273
Stream size : 9.16 GiB (79%)
Writing library : x264 core 140 r2377 1ca7bb9
Encoding settings : cabac=1 / ref=5 / deblock=1:-3:-3 / analyse=0x3:0x133 / me=tesa / subme=11 / psy=1 / psy_rd=1.00:0.00 / mixed_ref=1 / me_range=32 / chroma_me=1 / trellis=2 / 8x8dct=1 / cqm=0 / deadzone=21,11 / fast_pskip=0 / chroma_qp_offset=-2 / threads=12 / lookahead_threads=2 / sliced_threads=0 / nr=0 / decimate=0 / interlaced=0 / bluray_compat=0 / constrained_intra=0 / bframes=8 / b_pyramid=2 / b_adapt=2 / b_bias=0 / direct=3 / weightb=0 / open_gop=0 / weightp=2 / keyint=240 / keyint_min=23 / scenecut=40 / intra_refresh=0 / rc=2pass / mbtree=0 / bitrate=10301 / ratetol=1.0 / qcomp=0.60 / qpmin=0 / qpmax=69 / qpstep=4 / cplxblur=20.0 / qblur=0.5 / ip_ratio=1.40 / pb_ratio=1.30 / aq=1:1.00
Language : English
Default : Yes
Forced : No
Audio #1
ID : 2
Format : AC-3
Format/Info : Audio Coding 3
Mode extension : CM (complete main)
Format settings, Endianness : Big
Codec ID : A_AC3
Duration : 2h 10mn
Bit rate mode : Constant
Bit rate : 640 Kbps
Channel count : 6 channels
Channel positions : Front: L C R, Side: L R, LFE
Sampling rate : 48.0 KHz
Bit depth : 16 bits
Compression mode : Lossy
Stream size : 598 MiB (5%)
Title : Дубляж, Парадиз
Language : Russian
Default : Yes
Forced : No
Audio #2
ID : 3
Format : AC-3
Format/Info : Audio Coding 3
Mode extension : CM (complete main)
Format settings, Endianness : Big
Codec ID : A_AC3
Duration : 2h 10mn
Bit rate mode : Constant
Bit rate : 448 Kbps
Channel count : 6 channels
Channel positions : Front: L C R, Side: L R, LFE
Sampling rate : 48.0 KHz
Bit depth : 16 bits
Compression mode : Lossy
Stream size : 418 MiB (4%)
Title : Многоголосый, Киномания
Language : Russian
Default : No
Forced : No
Audio #3
ID : 4
Format : AC-3
Format/Info : Audio Coding 3
Mode extension : CM (complete main)
Format settings, Endianness : Big
Codec ID : A_AC3
Duration : 2h 10mn
Bit rate mode : Constant
Bit rate : 640 Kbps
Channel count : 6 channels
Channel positions : Front: L C R, Side: L R, LFE
Sampling rate : 48.0 KHz
Bit depth : 16 bits
Compression mode : Lossy
Stream size : 598 MiB (5%)
Title : Авторский, С. Рябов
Language : Russian
Default : No
Forced : No
Audio #4
ID : 5
Format : AC-3
Format/Info : Audio Coding 3
Mode extension : CM (complete main)
Format settings, Endianness : Big
Codec ID : A_AC3
Duration : 2h 10mn
Bit rate mode : Constant
Bit rate : 640 Kbps
Channel count : 6 channels
Channel positions : Front: L C R, Side: L R, LFE
Sampling rate : 48.0 KHz
Bit depth : 16 bits
Compression mode : Lossy
Stream size : 598 MiB (5%)
Title : Оригинал, Английский
Language : English
Default : No
Forced : No
Text #1
ID : 6
Format : UTF-8
Codec ID : S_TEXT/UTF8
Codec ID/Info : UTF-8 Plain Text
Title : Русские, на расширенные моменты
Language : Russian
Default : Yes
Forced : No
Text #2
ID : 7
Format : UTF-8
Codec ID : S_TEXT/UTF8
Codec ID/Info : UTF-8 Plain Text
Title : Русские, полные
Language : Russian
Default : No
Forced : No
Text #3
ID : 8
Format : UTF-8
Codec ID : S_TEXT/UTF8
Codec ID/Info : UTF-8 Plain Text
Language : English
Default : No
Forced : No
Menu
00:00:00.000 : en:00:00:00.000
00:10:06.022 : en:00:10:06.022
00:18:08.379 : en:00:18:08.379
00:26:01.143 : en:00:26:01.143
00:36:12.170 : en:00:36:12.170
00:45:09.248 : en:00:45:09.248
00:55:03.675 : en:00:55:03.675
01:04:39.501 : en:01:04:39.501
01:12:14.455 : en:01:12:14.455
01:24:41.868 : en:01:24:41.868
01:32:32.422 : en:01:32:32.422
01:42:58.631 : en:01:42:58.631
01:50:09.728 : en:01:50:09.728
02:02:39.435 : en:02:02:39.435
Файл: Hannibal.Lecter.Collection.1986-2007.x264.BDRip.torrent
Дата добавления:27 Октябрь 2018, 18:44:20
Размер:57.76 GB
Комментариев:0
Хеш-сумма:BB26FFD11A49BC008789D6D9579E4DE040ED8D5E
Сидер замечен:Никогда
Просмотров:26
.torrent взят:18 раз(а)
Статус: проверено
Оценка:Никто ещё не поставил оценку
Теги:Джоди Фостер Энтони Хопкинс Сборники фильмов

Комментарии

Пока комментариев нет

Добавить комментарий

Файлы для обмена предоставлены пользователями сайта. Администрация не несёт ответственности за их содержание. На сервере хранятся только торрент-файлы. Это значит, что мы не храним никаких нелегальных материалов, а так же материалов, охраняемых авторским правом.