Джентльмены удачи (1971) BDRip 720p от New Team

<<   |   ?¿   |  >>
Страна: СССР
Студия: Мосфильм
Жанр: комедия, драма
Год выпуска: 1971
Продолжительность: 01:26:43
Перевод: Не требуется
Cубтитры: нет
Режиссер: Александр Серый
Автор сценария: Георгий Данелия, Виктория Токарева
В ролях: Евгений Леонов, Георгий Вицин, Раднэр Муратов, Савелий Крамаров, Наталья Фатеева, Эраст Гарин, Николай Олялин, Анатолий Папанов, Павел Шпрингфельд, Любовь Соколова

Описание: Заведующему детсадом Трошкину фатально не повезло: он оказался как две капли воды похож на бандита по кличке «Доцент», похитившего уникальный шлем Александра Македонского.
Милиция внедряет добряка Трошкина в воровскую среду - и ему ничего не остается, кроме как старательно изображать своего двойника-злодея, путая всех окружающих. Со временем он настолько блестяще входит в роль, что сам начинает порой приходить в ужас. Между тем, жизни его угрожает смертельная опасность...

Википедия | КиноПоиск

Тип релиза: BDRip 720p
Контейнер: MKV
Исходник: Blu-Ray
Видео: AVC; 944x720 (4:3); 6761 Кбит/сек; 23,976 fps; 0,199 bpp
Аудио: AC3; 448 Kbps; CBR; 6 ch; 16 bit
Общее
Уникальный идентификатор : 210303505525321110342010850829168168807 (0x9E36FB5BD67427FE8175CDB9BB6E4F67)
Полное имя : E:BDDjentlmeny.udachi.1971.BDRip.720p.[Youtracker].by.Дядя_Лёша.mkv
Формат : Matroska
Версия формата : Version 4 / Version 2
Размер файла : 4,37 Гбайт
Продолжительность : 1 ч. 26 м.
Общий поток : 7211 Кбит/сек
Дата кодирования : UTC 2013-04-12 04:32:13
Программа кодирования : mkvmerge v6.1.0 ('Old Devil') built on Mar 2 2013 14:32:37
Библиотека кодирования : libebml v1.3.0 + libmatroska v1.4.0
Видео
Идентификатор : 1
Формат : AVC
Формат/Информация : Advanced Video Codec
Профиль формата : High@L4.1
Параметр CABAC формата : Да
Параметр ReFrames формата : 12 кадров
Идентификатор кодека : V_MPEG4/ISO/AVC
Продолжительность : 1 ч. 26 м.
Битрейт : 6761 Кбит/сек
Ширина : 944 пикселя
Высота : 720 пикселей
Соотношение сторон : 4:3
Режим частоты кадров : Постоянный
Частота кадров : 23,976 кадра/сек
Цветовое пространство : YUV
Субдискретизация насыщенности : 4:2:0
Битовая глубина : 8 бит
Тип развёртки : Прогрессивная
Бит/(Пиксели*Кадры) : 0.415
Размер потока : 4,01 Гбайт (92%)
Библиотека кодирования : x264 core 130 r2273 b3065e6
Настройки программы : cabac=1 / ref=12 / deblock=1:-3:-3 / analyse=0x3:0x133 / me=umh / subme=10 / psy=1 / psy_rd=1.00:0.15 / mixed_ref=1 / me_range=24 / chroma_me=1 / trellis=2 / 8x8dct=1 / cqm=0 / deadzone=21,11 / fast_pskip=1 / chroma_qp_offset=-3 / threads=9 / lookahead_threads=1 / sliced_threads=0 / nr=0 / decimate=1 / interlaced=0 / bluray_compat=0 / constrained_intra=0 / bframes=7 / b_pyramid=2 / b_adapt=2 / b_bias=0 / direct=3 / weightb=1 / open_gop=0 / weightp=2 / keyint=240 / keyint_min=22 / scenecut=40 / intra_refresh=0 / rc_lookahead=40 / rc=2pass / mbtree=1 / bitrate=6761 / ratetol=1.0 / qcomp=0.60 / qpmin=10 / qpmax=51 / qpstep=4 / cplxblur=20.0 / qblur=0.5 / ip_ratio=1.40 / aq=1:1.00
Язык : English
Default : Да
Forced : Нет
Аудио
Идентификатор : 2
Формат : AC-3
Формат/Информация : Audio Coding 3
Расширение режима : CM (complete main)
Параметр Endianness формата : Big
Идентификатор кодека : A_AC3
Продолжительность : 1 ч. 26 м.
Вид битрейта : Постоянный
Битрейт : 448 Кбит/сек
Каналы : 6 каналов
Расположение каналов : Front: L C R, Side: L R, LFE
Частота : 48,0 КГц
Битовая глубина : 16 бит
Метод сжатия : С потерями
Размер потока : 278 Мбайт (6%)
Заголовок : Оригинал
Язык : Russian
Default : Да
Forced : Нет
Галерея
img
img
img
img
img
Файл: Djentlmeny.udachi.1971.BDRip.720p.torrent
Дата добавления:19 Октябрь 2018, 12:12:32
Размер:4.37 GB
Комментариев:2
Хеш-сумма:5BBB2DE80B44B30F527548AE4219B28211D94FB5
Сидер замечен:14 Ноябрь 2018, 19:32:15
Просмотров:52
.torrent взят:26 раз(а)
Статус: проверено
Оценка:Никто ещё не поставил оценку
Теги:СССР Мосфильм Евгений Леонов Георгий Вицин Раднэр Муратов Савелий Крамаров Георгий Данелия

Комментарии

Abram

  • Uploader
  • Землянин
  • *****
Ответ #1 - 19 Октябрь 2018, 12:53:45
Шикарный фильм!

inter

  • Царь
  • Крутой чатланин
  • *****
  • Пол: Мужской
Ответ #2 - 19 Октябрь 2018, 19:25:05

Файлы для обмена предоставлены пользователями сайта. Администрация не несёт ответственности за их содержание. На сервере хранятся только торрент-файлы. Это значит, что мы не храним никаких нелегальных материалов, а так же материалов, охраняемых авторским правом.