Иван Бровкин на целине (1958) DVDRip-AVC от New-Team

<<   |   ?¿   |  >>
Страна : СССР
Производство : Студия Горького
Жанр : комедия
Год выпуска : 1958
Продолжительность : 01:30:44
Перевод : не требуется
Оригинальная аудиодорожка : русский
Cубтитры : нет
Режиссер : Иван Лукинский
В ролях:  Леонид Харитонов, Татьяна Пельтцер, Сергей Блинников, Анна Коломийцева, Дая Смирнова, Михаил Пуговкин, Вера М.Орлова, С.Зайкова, Евгений Шутов, Станислав Минин, К.Синицын, Ю.Ликумс, Т.Жайлибеков, Борис Толмазов, Владимир Лепко...

Описание : Продолжение фильма «Солдат Иван Бровкин». После демобилизации Иван Бровкин гостил дома недолго. Вместе со своими друзьями он решил поехать на целину. А Любаша, не согласившись ехать в далекую землю, снова осталась ждать своего Ивана, который вместе со всеми преодолевал трудности, а вскоре стал бригадиром трактористов, ударником труда.
Мать Ивана переехала к сыну, которому друзья-целинники построили новый дом. Сюда же приехал и Захар Силыч к своей Полине. За свой труд Иван Бровкин был награжден Орденом Трудового Красного Знамени. Теперь он приехал свататься к своей Любаше. Ее родители уже не возражали. После свадьбы молодые люди уехали на целину, чтобы продолжить освоение целинных земель…

Википедия

Исходник : DVD9 R5
Тип релиза : DVDRip-AVC
Контейнер : MKV
Видео : 696x556@742x556 (4:3), 25 fps, H264 ~ 1847 kbps avg, 0.191 bit/pixel
Аудио : 48 kHz, Dolby AC3 5.1, 448 kbps

Общее
Полное имя : Ivan.Brovkin.na.celine.1958.DVDRip-AVC_[Youtracker]_by_AVP Studio.mkv
Формат : Matroska
Версия формата : Version 2
Размер файла : 1,46 Гбайт
Продолжительность : 1 ч. 30 м.
Общий поток : 2297 Кбит/сек
Дата кодирования : UTC 2013-02-27 05:27:46
Программа кодирования : mkvmerge v5.0.1 ('Es ist Sommer') built on Nov 6 2011 16:23:40
Библиотека кодирования : libebml v1.2.2 + libmatroska v1.3.0
Видео
Идентификатор : 1
Формат : AVC
Формат/Информация : Advanced Video Codec
Профиль формата : High@L4.1
Параметр CABAC формата : Да
Параметр ReFrames формата : 11 кадров
Идентификатор кодека : V_MPEG4/ISO/AVC
Продолжительность : 1 ч. 30 м.
Битрейт : 1847 Кбит/сек
Ширина : 696 пикселей
Высота : 556 пикселей
Соотношение сторон : 4:3
Частота кадров : 25,000 кадров/сек
Цветовое пространство : YUV
Субдискретизация насыщенности : 4:2:0
Битовая глубина : 8 бит
Тип развёртки : Прогрессивная
Бит/(Пиксели*Кадры) : 0.191
Размер потока : 1,14 Гбайт (79%)
Библиотека кодирования : x264 core 119 r2106 07efeb4
Настройки программы : cabac=1 / ref=11 / deblock=1:-2:-1 / analyse=0x3:0x113 / me=umh / subme=9 / psy=1 / psy_rd=1.00:0.20 / mixed_ref=1 / me_range=32 / chroma_me=1 / trellis=1 / 8x8dct=1 / cqm=0 / deadzone=21,11 / fast_pskip=0 / chroma_qp_offset=-3 / threads=3 / sliced_threads=0 / nr=0 / decimate=0 / interlaced=0 / bluray_compat=0 / constrained_intra=0 / bframes=8 / b_pyramid=2 / b_adapt=2 / b_bias=0 / direct=3 / weightb=1 / open_gop=0 / weightp=2 / keyint=250 / keyint_min=25 / scenecut=40 / intra_refresh=0 / rc_lookahead=60 / rc=2pass / mbtree=1 / bitrate=1847 / ratetol=1.0 / qcomp=0.60 / qpmin=0 / qpmax=69 / qpstep=4 / cplxblur=20.0 / qblur=0.5 / ip_ratio=1.40 / aq=1:1.00
Default : Да
Forced : Нет
Аудио
Идентификатор : 2
Формат : AC-3
Формат/Информация : Audio Coding 3
Расширение режима : CM (complete main)
Идентификатор кодека : A_AC3
Продолжительность : 1 ч. 30 м.
Вид битрейта : Постоянный
Битрейт : 448 Кбит/сек
Каналы : 6 каналов
Расположение каналов : Front: L C R, Side: L R, LFE
Частота : 48,0 КГц
Битовая глубина : 16 бит
Метод сжатия : С потерями
Размер потока : 291 Мбайт (20%)
Default : Да
Forced : Нет
Галерея
img
img
img
img
img
Файл: Ivan.Brovkin.na.celine.1958.DVDRip-AVC.torrent
Дата добавления:18 Октябрь 2018, 11:11:38
Размер:1.46 GB
Комментариев:0
Хеш-сумма:274B25AC38151004F9E8E4B66D1CCBED7C490D2D
Сидер замечен:18 Октябрь 2018, 21:49:45
Просмотров:27
.torrent взят:25 раз(а)
Статус: проверено
Оценка:Никто ещё не поставил оценку
Теги:СССР Студия Горького Леонид Харитонов Татьяна Пельтцер Сергей Блинников Анна Коломийцева Дая Смирнова Михаил Пуговкин

Комментарии

Пока комментариев нет

Добавить комментарий

Файлы для обмена предоставлены пользователями сайта. Администрация не несёт ответственности за их содержание. На сервере хранятся только торрент-файлы. Это значит, что мы не храним никаких нелегальных материалов, а так же материалов, охраняемых авторским правом.