Солдат Иван Бровкин (1956) DVDRip-AVC от New-Team

<<   |   ?¿   |  >>
Солдат Иван Бровкин (1956) DVDRip-AVC от New-Team

Страна : СССР
Производство : Студия Горького
Жанр : комедия
Год выпуска : 1956
Продолжительность : 01:27:24
Перевод : не требуется
Оригинальная аудиодорожка : русский
Cубтитры : нет
Режиссер : Иван Лукинский
В ролях:  Леонид Харитонов, Дарья Смирнова, Татьяна Пельтцер, Клавдия Козленкова, Валентина Ананьина, Константин Тыртов, Анна Коломийцева, Евгений Шутов, Михаил Пуговкин, Сергей Блинников, Борис Толмазов...

Описание : Деревенский паренек Иван Бровкин считался «непутевым», потому председатель колхоза старался держать от него подальше свою дочь Любашу. Захар Силыч попробовал сделать из Ивана шофера. Но Иван подвел своего наставника, утопив в речке колхозный грузовик. Лишь заступничество матери за сына и… повестка в армию помогли избежать серьезных последствий.
Не сразу Иван стал умелым воином, но солдатская дружба и взаимовыручка, помощь и внимание командиров помогли ему достичь успехов в службе. А Люба ждала своего возлюбленного и отвергала ухаживания «интеллигентного» бухгалтера.
Ефрейтор Иван Бровкин прибыл на побывку уже другим человеком, и Люба теперь не боялась колкостей и злословий со стороны односельчан в адрес своего суженного. Из «непутевого» парня армейская служба превратила Ивана в самостоятельного человека, готового к любым трудностям…

Википедия

Исходник : DVD9 R5
Тип релиза : DVDRip-AVC
Контейнер : MKV
Видео : 672x552@720x552 (1,299:1), 25 fps, H264 ~ 1935 kbps avg, 0.209 bit/pixel
Аудио : 48 kHz, Dolby AC3 5.1, 448 kbps
Общее
Полное имя : Soldat.Ivan.Brovkin.1956.DVDRip-AVC_[Youtracker]_by_AVP Studio.mkv
Формат : Matroska
Версия формата : Version 2
Размер файла : 1,46 Гбайт
Продолжительность : 1 ч. 27 м.
Общий поток : 2385 Кбит/сек
Дата кодирования : UTC 2013-02-22 01:17:09
Программа кодирования : mkvmerge v5.0.1 ('Es ist Sommer') built on Nov 6 2011 16:23:40
Библиотека кодирования : libebml v1.2.2 + libmatroska v1.3.0
Видео
Идентификатор : 1
Формат : AVC
Формат/Информация : Advanced Video Codec
Профиль формата : High@L4.1
Параметр CABAC формата : Да
Параметр ReFrames формата : 11 кадров
Идентификатор кодека : V_MPEG4/ISO/AVC
Продолжительность : 1 ч. 27 м.
Битрейт : 1935 Кбит/сек
Ширина : 672 пикселя
Высота : 552 пикселя
Соотношение сторон : 1,299
Частота кадров : 25,000 кадров/сек
Цветовое пространство : YUV
Субдискретизация насыщенности : 4:2:0
Битовая глубина : 8 бит
Тип развёртки : Прогрессивная
Бит/(Пиксели*Кадры) : 0.209
Размер потока : 1,15 Гбайт (79%)
Библиотека кодирования : x264 core 119 r2106 07efeb4
Настройки программы : cabac=1 / ref=11 / deblock=1:-2:-1 / analyse=0x3:0x113 / me=umh / subme=9 / psy=1 / psy_rd=1.00:0.20 / mixed_ref=1 / me_range=32 / chroma_me=1 / trellis=1 / 8x8dct=1 / cqm=0 / deadzone=21,11 / fast_pskip=0 / chroma_qp_offset=-3 / threads=3 / sliced_threads=0 / nr=0 / decimate=0 / interlaced=0 / bluray_compat=0 / constrained_intra=0 / bframes=8 / b_pyramid=2 / b_adapt=2 / b_bias=0 / direct=3 / weightb=1 / open_gop=0 / weightp=2 / keyint=250 / keyint_min=25 / scenecut=40 / intra_refresh=0 / rc_lookahead=60 / rc=2pass / mbtree=1 / bitrate=1935 / ratetol=1.0 / qcomp=0.60 / qpmin=0 / qpmax=69 / qpstep=4 / cplxblur=20.0 / qblur=0.5 / ip_ratio=1.40 / aq=1:1.00
Default : Да
Forced : Нет
Аудио
Идентификатор : 2
Формат : AC-3
Формат/Информация : Audio Coding 3
Расширение режима : CM (complete main)
Идентификатор кодека : A_AC3
Продолжительность : 1 ч. 27 м.
Вид битрейта : Постоянный
Битрейт : 448 Кбит/сек
Каналы : 6 каналов
Расположение каналов : Front: L C R, Side: L R, LFE
Частота : 48,0 КГц
Битовая глубина : 16 бит
Метод сжатия : С потерями
Размер потока : 280 Мбайт (19%)
Default : Да
Forced : Нет
Галерея
img
img
img
img
img
Файл: Soldat.Ivan.Brovkin.1956.DVDRip-AVC.torrent
Дата добавления:18 Октябрь 2018, 11:11:31
Размер:1.46 GB
Комментариев:0
Хеш-сумма:C64B38F2F02585AEE89F1CDB731CE0415536ADA6
Сидер замечен:14 Ноябрь 2018, 19:41:06
Просмотров:32
.torrent взят:26 раз(а)
Статус: проверено
Оценка:Никто ещё не поставил оценку
Теги:СССР Студия Горького Леонид Харитонов Дарья Смирнова Татьяна Пельтцер Клавдия Козленкова Валентина Ананьина Константин Тыртов Анна Коломийцева Евгений Шутов Михаил Пуговкин Сергей Блинников Борис Толмазов

Комментарии

Пока комментариев нет

Добавить комментарий

Файлы для обмена предоставлены пользователями сайта. Администрация не несёт ответственности за их содержание. На сервере хранятся только торрент-файлы. Это значит, что мы не храним никаких нелегальных материалов, а так же материалов, охраняемых авторским правом.