Человек-муравей и Оса / Ant-Man and the Wasp (2018) BDRip 720p от TeamHD | iTunes

<<   |   ?¿   |  >>
Информация о фильме
Название: Человек-муравей и Оса
Оригинальное название: Ant-Man and the Wasp
Год выхода: 2018
Жанр: Фантастика, боевик, приключения
Режиссер: Пейтон Рид
В ролях: Пол Радд, Эванджелин Лилли, Майкл Пенья, Уолтон Гоггинс,
 Бобби Каннавейл, Джуди Грир, Ти Ай, Давид Дастмалчян, Ханна
Джон-Кэймен, Эбби Райдер Фортсон

О фильме: Скотт
 Лэнг, известный также, как Человек-Муравей уже заслужил право оказаться
 в команде Мстителей, но желание быть ближе к собственной дочке
удерживает его в родном Сан-Франциско - до тех пор, пока доктор Хэнк
Пим, создавший когда-то изменяющий размеры своего владельца чудо-костюм,
 не призывает Скотта присоединиться к новой, опасной миссии. А помогать в
 противостоянии с коварным врагом Человеку-Муравью будет новая напарница
 - Оса.


Страна: США
Студия: Marvel Studios
Продолжительность: 01:58:06
Перевод: Дублированный | iTunes

Качество: BDRip 720p
Видео: MPEG-4 AVC, 1280x536, 3854 Kbit/s, 23.976 fps
Звук:
Аудио #01: 48 kHz, AC3, 5.1, 384 Kbps | iTunes | RUS
Аудио #02: 48 kHz, DTS, 5.1, 1510 Kbps | Оригинал |  ENG
Субтитры: Русские (Forced, full, SDH), английские (Full, SDH, SDH Colored)

General
Unique ID : 96915521166135780750852235610424253549 (0x48E9401C1D041D375D55EE4505BE9C6D)
Complete name : D:Video111Ant-Man.and.the.Wasp.2018.BluRay.720p.Rus.Eng.TeamHD-MTeam.mkv
Format : Matroska
Format version : Version 4
File size : 4.74 GiB
Duration : 1 h 58 min
Overall bit rate : 5 751 kb/s
Movie name : Ant-Man and the Wasp (2018) TeamHD-селезень
Encoded date : UTC 2018-10-05 03:27:28
Writing application : mkvmerge v23.0.0 ('The Bride Said No') 64-bit
Writing library : libebml v1.3.6 + libmatroska v1.4.9

Video
ID : 1
Format : AVC
Format/Info : Advanced Video Codec
Format profile : High@L4.1
Format settings : CABAC / 12 Ref Frames
Format settings, CABAC : Yes
Format settings, ReFrames : 12 frames
Codec ID : V_MPEG4/ISO/AVC
Duration : 1 h 58 min
Bit rate : 3 854 kb/s
Width : 1 280 pixels
Height : 536 pixels
Display aspect ratio : 2.40:1
Frame rate mode : Constant
Frame rate : 23.976 (24000/1001) FPS
Color space : YUV
Chroma subsampling : 4:2:0
Bit depth : 8 bits
Scan type : Progressive
Bits/(Pixel*Frame) : 0.234
Stream size : 3.18 GiB (67%)
Title : MTeam
Writing library : x264 core 155 r2901 7d0ff22
Encoding settings : cabac=1 / ref=12 / deblock=1:-3:-3 / analyse=0x3:0x133 / me=umh / subme=10 / psy=1 / psy_rd=1.05:0.00 / mixed_ref=1 / me_range=32 / chroma_me=1 / trellis=2 / 8x8dct=1 / cqm=0 / deadzone=21,11 / fast_pskip=0 / chroma_qp_offset=-2 / threads=12 / lookahead_threads=2 / sliced_threads=0 / nr=0 / decimate=0 / interlaced=0 / bluray_compat=0 / constrained_intra=0 / bframes=8 / b_pyramid=2 / b_adapt=2 / b_bias=0 / direct=3 / weightb=1 / open_gop=0 / weightp=2 / keyint=250 / keyint_min=24 / scenecut=40 / intra_refresh=0 / rc_lookahead=250 / rc=crf / mbtree=0 / crf=15.5 / qcomp=0.60 / qpmin=0 / qpmax=69 / qpstep=4 / vbv_maxrate=62500 / vbv_bufsize=78125 / crf_max=0.0 / nal_hrd=none / filler=0 / ip_ratio=1.30 / pb_ratio=1.20 / aq=3:0.80
Language : English
Default : Yes
Forced : No

Audio #1
ID : 2
Format : AC-3
Format/Info : Audio Coding 3
Commercial name : Dolby Digital
Codec ID : A_AC3
Duration : 1 h 58 min
Bit rate mode : Constant
Bit rate : 384 kb/s
Channel(s) : 6 channels
Channel layout : L R C LFE Ls Rs
Sampling rate : 48.0 kHz
Frame rate : 31.250 FPS (1536 SPF)
Bit depth : 16 bits
Compression mode : Lossy
Stream size : 324 MiB (7%)
Title : Dub [iTunes]
Language : Russian
Service kind : Complete Main
Default : Yes
Forced : Yes

Audio #2
ID : 3
Format : DTS
Format/Info : Digital Theater Systems
Codec ID : A_DTS
Duration : 1 h 58 min
Bit rate mode : Constant
Bit rate : 1 509 kb/s
Channel(s) : 6 channels
Channel layout : C L R Ls Rs LFE
Sampling rate : 48.0 kHz
Frame rate : 93.750 FPS (512 SPF)
Bit depth : 24 bits
Compression mode : Lossy
Stream size : 1.24 GiB (26%)
Title : Original
Language : English
Default : No
Forced : No

Text #1
ID : 4
Format : UTF-8
Codec ID : S_TEXT/UTF8
Codec ID/Info : UTF-8 Plain Text
Duration : 1 h 30 min
Bit rate : 0 b/s
Count of elements : 4
Stream size : 209 Bytes (0%)
Title : Forced
Language : Russian
Default : Yes
Forced : Yes

Text #2
ID : 5
Format : UTF-8
Codec ID : S_TEXT/UTF8
Codec ID/Info : UTF-8 Plain Text
Duration : 1 h 57 min
Bit rate : 88 b/s
Count of elements : 1781
Stream size : 76.0 KiB (0%)
Title : Full
Language : Russian
Default : No
Forced : No

Text #3
ID : 6
Format : UTF-8
Codec ID : S_TEXT/UTF8
Codec ID/Info : UTF-8 Plain Text
Duration : 1 h 57 min
Bit rate : 104 b/s
Count of elements : 2152
Stream size : 89.8 KiB (0%)
Title : SDH
Language : Russian
Default : No
Forced : No

Text #4
ID : 7
Format : UTF-8
Codec ID : S_TEXT/UTF8
Codec ID/Info : UTF-8 Plain Text
Duration : 1 h 50 min
Bit rate : 65 b/s
Count of elements : 1930
Stream size : 53.5 KiB (0%)
Title : Full
Language : English
Default : No
Forced : No

Text #5
ID : 8
Format : UTF-8
Codec ID : S_TEXT/UTF8
Codec ID/Info : UTF-8 Plain Text
Duration : 1 h 57 min
Bit rate : 68 b/s
Count of elements : 2136
Stream size : 59.3 KiB (0%)
Title : SDH
Language : English
Default : No
Forced : No

Text #6
ID : 9
Format : UTF-8
Codec ID : S_TEXT/UTF8
Codec ID/Info : UTF-8 Plain Text
Duration : 1 h 57 min
Bit rate : 98 b/s
Count of elements : 2138
Stream size : 85.2 KiB (0%)
Title : SDH Colored
Language : English
Default : No
Forced : No

Menu
00:00:00.000 : en:00:00:00.000
00:04:03.034 : en:00:04:03.034
00:10:16.407 : en:00:10:16.407
00:13:39.861 : en:00:13:39.861
00:21:25.451 : en:00:21:25.451
00:29:07.829 : en:00:29:07.829
00:36:09.084 : en:00:36:09.084
00:40:56.579 : en:00:40:56.579
00:50:17.431 : en:00:50:17.431
00:58:59.077 : en:00:58:59.077
01:04:56.434 : en:01:04:56.434
01:12:54.287 : en:01:12:54.287
01:18:32.124 : en:01:18:32.124
01:24:44.913 : en:01:24:44.913
01:29:47.340 : en:01:29:47.340
01:36:16.270 : en:01:36:16.270
01:43:35.334 : en:01:43:35.334
01:46:59.830 : en:01:46:59.830
Галерея
img
img
img
Файл: Ant-Man.and.the.Wasp.2018.BluRay.720p.Rus.Eng.T.torrent
Дата добавления:31 Август 2018, 18:49:42
Размер:4.74 GB
Комментариев:4
Хеш-сумма:A48A7108EBDF39CABD8289BD0E2C83F43BA8E6BF
Сидер замечен:25 Октябрь 2018, 09:09:09
Просмотров:288
.torrent взят:1220 раз(а)
Статус: проверено
Оценка:Никто ещё не поставил оценку
Теги:

Комментарии

bandito

  • Linux
  • Землянин
  • *
Ответ #1 - 31 Август 2018, 21:59:11
Цитата
Перевод: Дублированный [Звук с TS]
Субтитры: Китайские вщитые

 :diggi-29:

Abram

  • Uploader
  • Землянин
  • *****
Ответ #2 - 01 Сентябрь 2018, 14:33:40
Ок. Наверное Новинки тут выкладывать нельзя. Можно только старьё выложить на сайт. Буду знать.

bandito

  • Linux
  • Землянин
  • *
Ответ #3 - 01 Сентябрь 2018, 16:40:01
Новинки выкладывать можно, но лично я не качаю фильмы с плохим качеством, корейскими субтитрами и другим не советую. (Эту раздачу я скачал, не посмотрев внимательно техданные)

« Последнее редактирование: 01 Сентябрь 2018, 16:41:14 от bandito »

inter

  • Царь
  • Крутой чатланин
  • *****
  • Пол: Мужской
Ответ #4 - 13 Октябрь 2018, 18:32:10
Обновил торрент, теперь лучше качество, звук и пр

Файлы для обмена предоставлены пользователями сайта. Администрация не несёт ответственности за их содержание. На сервере хранятся только торрент-файлы. Это значит, что мы не храним никаких нелегальных материалов, а так же материалов, охраняемых авторским правом.