Карьера Димы Горина (1962) DVDRip-AVC

<<   |   ?¿   |  >>
Страна: СССР
Производство: Студия Горького
Жанр: комедия
Год выпуска: 1962
Продолжительность: 01:34:21
 
Перевод: не тр*буется
Оригинальная аудиодорожка: русский
Cубтитры: нет
 
Режиссер: Фрунзе Довлатян, Лев Мирский
 
В ролях: Александр Демьяненко, Татьяна Конюхова, Владимир Селезнёв, Евгений Кудряшёв, Владимир Высоцкий, Николай Казаков, Алексей Ванин, Ровшан Алиев, Виталий Черменёв, Ю. Каракаев, Валентина Маркова, Маргарита Жарова, Валентина Валевская, Валентина Ананьина, Сергей Васильев, Инна Фёдорова, Людмила Голубева, Наталия Киндинова, Георгий Тимофеев, Зиновий Гердт (текст от автора)...
 
Описание:
Из-за своей финансовой ошибки служащему сберкассы Диме Горину пришлось ехать на далекую сибирскую стройку, где он встретил совершенно незнакомую жизнь и девушку своей мечты…

Википедия | IMDb | КиноПоиск | Скачать сэмпл

Исходник: DVD9 R5
Тип релиза: DVDRip-AVC
Контейнер: MKV

Видео: 704x572@768x572 (4:3), 25 fps, H264 ~ 1823 kbps avg, 0.181 bit/pixel
Аудио: 48 kHz, Dolby AC3 5.1, 384 kbps
Общее
 Полное имя                               : Kar'era.Dimy.Gorina.1962.DVDRip-AVC_[Youtracker]_by_AVP Studio.mkv
 Формат                                   : Matroska
 Версия формата                           : Version 2
 Размер файла                             : 1,46 Гбайт
 Продолжительность                        : 1 ч. 34 м.
 Общий поток                              : 2209 Кбит/сек
 Дата кодирования                         : UTC 2013-03-21 01:15:40
 Программа кодирования                    : mkvmerge v5.0.1 ('Es ist Sommer') built on Nov  6 2011 16:23:40
 Библиотека кодирования                   : libebml v1.2.2 + libmatroska v1.3.0
 
 Видео
 Идентификатор                            : 1
 Формат                                   : AVC
 Формат/Информация                        : Advanced Video Codec
 Профиль формата                          : High@L4.1
 Параметр CABAC формата                   : Да
 Параметр ReFrames формата                : 11 кадров
 Идентификатор кодека                     : V_MPEG4/ISO/AVC
 Продолжительность                        : 1 ч. 34 м.
 Битрейт                                  : 1823 Кбит/сек
 Ширина                                   : 704 пикселя
 Высота                                   : 572 пикселя
 Соотношение сторон                       : 4:3
 Соотношение сторон в оригинале           : 4:3
 Частота кадров                           : 25,000 кадров/сек
 Цветовое пространство                    : YUV
 Субдискретизация насыщенности            : 4:2:0
 Битовая глубина                          : 8 бит
 Тип развёртки                            : Прогрессивная
 Бит/(Пиксели*Кадры)                      : 0.181
 Размер потока                            : 1,17 Гбайт (81%)
 Библиотека кодирования                   : x264 core 119 r2106 07efeb4
 Настройки программы                      : cabac=1 / ref=11 / deblock=1:-2:-1 / analyse=0x3:0x113 / me=umh / subme=9 / psy=1 / psy_rd=1.00:0.20 / mixed_ref=1 / me_range=32 / chroma_me=1 / trellis=1 / 8x8dct=1 / cqm=0 / deadzone=21,11 / fast_pskip=0 / chroma_qp_offset=-3 / threads=3 / sliced_threads=0 / nr=0 / decimate=0 / interlaced=0 / bluray_compat=0 / constrained_intra=0 / bframes=8 / b_pyramid=2 / b_adapt=2 / b_bias=0 / direct=3 / weightb=1 / open_gop=0 / weightp=2 / keyint=250 / keyint_min=25 / scenecut=40 / intra_refresh=0 / rc_lookahead=60 / rc=2pass / mbtree=1 / bitrate=1823 / ratetol=1.0 / qcomp=0.60 / qpmin=0 / qpmax=69 / qpstep=4 / cplxblur=20.0 / qblur=0.5 / ip_ratio=1.40 / aq=1:1.00
 Default                                  : Да
 Forced                                   : Нет
 
 Аудио
 Идентификатор                            : 2
 Формат                                   : AC-3
 Формат/Информация                        : Audio Coding 3
 Расширение режима                        : CM (complete main)
 Идентификатор кодека                     : A_AC3
 Продолжительность                        : 1 ч. 34 м.
 Вид битрейта                             : Постоянный
 Битрейт                                  : 384 Кбит/сек
 Каналы                                   : 6 каналов
 Расположение каналов                     : Front: L C R, Side: L R, LFE
 Частота                                  : 48,0 КГц
 Битовая глубина                          : 16 бит
 Метод сжатия                             : С потерями
 Размер потока                            : 259 Мбайт (17%)
 Default                                  : Да
 Forced                                   : Нет
Галерея
img
img
img
img
img
Файл: Karera.Dimy.Gorina.1962.DVDRip-AVC.torrent
Дата добавления:05 Ноябрь 2016, 21:54:51
Размер:1.46 GB
Комментариев:0
Хеш-сумма:C348F3398EF4D5417D57D6783F1AD81CD7E19CBD
Сидер замечен:Сегодня в 00:30:29
Просмотров:417
.torrent взят:108 раз(а)
Статус: проверено
Оценка:Никто ещё не поставил оценку
Теги:Александр Демьяненко Татьяна Конюхова Владимир Селезнёв Евгений Кудряшёв Владимир Высоцкий СССР

Комментарии

Пока комментариев нет

Добавить комментарий

Файлы для обмена предоставлены пользователями сайта. Администрация не несёт ответственности за их содержание. На сервере хранятся только торрент-файлы. Это значит, что мы не храним никаких нелегальных материалов, а так же материалов, охраняемых авторским правом.