Хоттабыч / }{отт@бь)ч (2006) DVDRip-AVC

<<   |   ?¿   |  >>
Информация о фильме
Название: }{отт@бь)ч
Год выхода: 2006
Жанр: фантастика, фэнтези, комедия, приключения
Режиссер: Петр Точилин
В ролях: Владимир Толоконников, Марюс Ямпольскис, Лива Круминя, Марк Гейхман, Юлия Паранова, Мила Липнер, Григорий Скряпкин, Иван Губанов, Александр Овчинников, Юрий Думчев

О фильме: Гена — программист по призванию и хакер по жизни. Он хороший парень. Но у него реальные проблемы. Его бросила любимая девушка, его «пасут» бандиты и выслеживают спецслужбы. Спасти его может только чудо, и оно, конечно же, случается. В жизни Гены появляется Хоттабыч, джин, который отмотал несколько тысяч лет заключения в одиночном кувшине.

И теперь готов исполнить три любых желания своего освободителя. Но у самого Хоттабыча тоже проблемы. За ним охотится его давний враг — Шайтаныч. Спасаясь от своих врагов, Гена и Хоттабыч летают на потраченном говорящей молью ковре-самолете над Красной площадью, путешествуют по сетям Мировой Паутины и практикуют магию: превращают людей в вещи, а вещи в людей…

Википедия | КиноПоиск: 6,2/10 - ‎26 278 голосов | IMDb:  6,3/10 of 1195 votes

Выпущено: CTB Film Company
Продолжительность: 01:31:48
Перевод: Оригинал (лицензия)

Файл
Кодек: x264
Качество: DVDRip-AVC
Видео: 960x518 (1,85:1), 25 fps, 2800 kbps
Аудио: AC-3, 6 ch, 448 kbps

Общее
Уникальный идентификатор : 174658011282652849694343872995269115998 (0x8365E8CE270E672FA995CCDC4895805E)
Полное имя : Khottabych.2006.DVDRip.AVC.Rus.mkv
Формат : Matroska
Версия формата : Version 2
Размер файла : 2,09 Гбайт
Продолжительность : 1 ч. 31 м.
Общий поток : 3255 Кбит/сек
Название фильма : Хоттабыч / }{отт@бь)ч (2006)
Дата кодирования : UTC 2014-08-10 11:28:34
Программа кодирования : mkvmerge v5.8.0 ('No Sleep / Pillow') built on Sep 2 2012 15:37:04
Библиотека кодирования : libebml v1.2.3 + libmatroska v1.3.0

Видео
Идентификатор : 1
Формат : AVC
Формат/Информация : Advanced Video Codec
Профиль формата : High@L4.1
Параметр CABAC формата : Да
Параметр ReFrames формата : 11 кадров
Идентификатор кодека : V_MPEG4/ISO/AVC
Продолжительность : 1 ч. 31 м.
Битрейт : 2806 Кбит/сек
Ширина : 960 пикселей
Высота : 518 пикселей
Соотношение сторон : 1,85:1
Режим частоты кадров : Постоянный
Частота кадров : 25,000 кадров/сек
Цветовое пространство : YUV
Субдискретизация насыщенности : 4:2:0
Битовая глубина : 8 бит
Тип развёртки : Прогрессивная
Бит/(Пиксели*Кадры) : 0.226
Размер потока : 1,76 Гбайт (84%)
Заголовок : Release by AlexKa
Библиотека кодирования : x264 core 142 r2453 ea0ca51
Настройки программы : cabac=1 / ref=11 / deblock=1:-3:-3 / analyse=0x3:0x133 / me=umh / subme=11 / psy=1 / psy_rd=1.00:0.00 / mixed_ref=1 / me_range=32 / chroma_me=1 / trellis=2 / 8x8dct=1 / cqm=0 / deadzone=21,11 / fast_pskip=0 / chroma_qp_offset=-2 / threads=12 / lookahead_threads=3 / sliced_threads=0 / nr=0 / decimate=0 / interlaced=0 / bluray_compat=0 / constrained_intra=0 / bframes=11 / b_pyramid=2 / b_adapt=2 / b_bias=0 / direct=3 / weightb=1 / open_gop=0 / weightp=2 / keyint=250 / keyint_min=25 / scenecut=40 / intra_refresh=0 / rc=2pass / mbtree=0 / bitrate=2806 / ratetol=1.0 / qcomp=0.60 / qpmin=0 / qpmax=69 / qpstep=4 / cplxblur=20.0 / qblur=0.5 / ip_ratio=1.40 / pb_ratio=1.30 / aq=1:1.00
Язык : Russian

Аудио
Идентификатор : 2
Формат : AC-3
Формат/Информация : Audio Coding 3
Расширение режима : CM (complete main)
Параметр Endianness формата : Big
Идентификатор кодека : A_AC3
Продолжительность : 1 ч. 31 м.
Вид битрейта : Постоянный
Битрейт : 448 Кбит/сек
Каналы : 6 каналов
Расположение каналов : Front: L C R, Side: L R, LFE
Частота : 48,0 КГц
Битовая глубина : 16 бит
Метод сжатия : С потерями
Размер потока : 294 Мбайт (14%)
Заголовок : Rus
Язык : Russian

Меню
00:00:00.000 : :Chapter 01
00:08:31.120 : :Chapter 02
00:12:33.520 : :Chapter 03
00:19:03.520 : :Chapter 04
00:27:44.640 : :Chapter 05
00:37:49.120 : :Chapter 06
00:47:40.120 : :Chapter 07
00:55:02.920 : :Chapter 08
01:04:35.920 : :Chapter 09
01:14:34.720 : :Chapter 10
01:26:17.920 : :Chapter 11
01:29:16.720 : :Chapter 12
01:31:47.920 : :Chapter 13
x264 [info]: frame I:1197 Avg QP:15.02 size: 64036
x264 [info]: frame P:31199 Avg QP:18.12 size: 26938
x264 [info]: frame B:105313 Avg QP:19.61 size: 9635
x264 [info]: consecutive B-frames: 2.9% 3.2% 6.6% 30.3% 19.0% 18.8% 7.5% 4.2% 3.2% 1.1% 0.9% 2.4%
Галерея
img
img
img
Файл: Khottabych.2006.DVDRip.AVC.Rus.mkv.torrent
Дата добавления:17 Июль 2017, 13:02:16
Размер:2.09 GB
Комментариев:0
Хеш-сумма:C5B9BFAFFFC5C4786101D2E67422342F16300EB8
Сидер замечен:Вчера в 16:31:02
Просмотров:183
.torrent взят:34 раз(а)
Статус: проверено
Оценка:Никто ещё не поставил оценку
Теги:Владимир Толоконников

Комментарии

Пока комментариев нет

Добавить комментарий

Файлы для обмена предоставлены пользователями сайта. Администрация не несёт ответственности за их содержание. На сервере хранятся только торрент-файлы. Это значит, что мы не храним никаких нелегальных материалов, а так же материалов, охраняемых авторским правом.