Маленькая Британия / Little Britain [Сезоны: 1-3] (2003-2005) DVDRip-AVC

<<   |   ?¿   |  >>
Годы выпуска: 2003-2005
Страна: Великобритания
Жанр: комедия
Продолжительность: ~ 29 минут
Перевод: Профессиональный (двухголосый, закадровый) /НСТ (Смешное)/
Запись: 13napas
Сведение: Beer kolesik Drinkers
Авторы идеи: David Walliams, Matt Lucas
В ролях: David Walliams, Matt Lucas

Описание: В Британии живут британцы. В основном это убогие, больные, толстые и нелепые люди с различными отклонениями. Как писала британская Independent, создатели этого сериала игнорируют саму идею политкорректности, издеваясь над теми, кто, как правило, защищен стеной всеобщего лицемерия.
Бодрость и маразм — таковы основные свойства комиков Мэтта Лукаса и Дэвида Уильямса, делающих из своих соотечественников бескомпромиссное посмешище. С ними, однако, не спешат разобраться. Потому что соотечественникам нравится.

Википедия

Качество: DVDRip-AVC
Формат: MKV
Видео кодек: H.264
Аудио кодек: AC3
Видео: 1012@696x572, 25 fps, 2053 Kbps, 0.206 bit/pixel
Аудио RUS: AC3, 48 kHz, 2 ch, 192 Kbps
Аудио ENG: AC3, 48 kHz, 2 ch, 192 Kbps

Формат : Matroska
Версия формата : Version 4 / Version 2
Размер файла : 507 Мбайт
Продолжительность : 28 м.
Общий поток : 2487 Кбит/сек
Дата кодирования : UTC 2013-07-11 06:14:52
Программа кодирования : mkvmerge v6.0.0 ('Coming Up For Air') built on Jan 20 2013 09:52:00
Библиотека кодирования : libebml v1.3.0 + libmatroska v1.4.0
Видео
Идентификатор : 1
Формат : AVC
Формат/Информация : Advanced Video Codec
Профиль формата : High@L3.1
Параметр CABAC формата : Да
Параметр ReFrames формата : 8 кадров
Идентификатор кодека : V_MPEG4/ISO/AVC
Продолжительность : 28 м.
Битрейт : 2100 Кбит/сек
Ширина : 696 пикселей
Высота : 572 пикселя
Соотношение сторон : 16:9
Режим частоты кадров : Постоянный
Частота кадров : 25,000 кадров/сек
Цветовое пространство : YUV
Субдискретизация насыщенности : 4:2:0
Битовая глубина : 8 бит
Тип развёртки : Прогрессивная
Бит/(Пиксели*Кадры) : 0.211
Размер потока : 419 Мбайт (83%)
Библиотека кодирования : x264 core 98 r1649 c54c47d
Настройки программы : cabac=1 / ref=8 / deblock=1:-2:-2 / analyse=0x3:0x133 / me=umh / subme=8 / psy=1 / psy_rd=1.00:0.25 / mixed_ref=1 / me_range=24 / chroma_me=1 / trellis=2 / 8x8dct=1 / cqm=0 / deadzone=21,11 / fast_pskip=0 / chroma_qp_offset=-4 / threads=3 / sliced_threads=0 / nr=0 / decimate=0 / interlaced=0 / constrained_intra=0 / bframes=8 / b_pyramid=2 / b_adapt=2 / b_bias=0 / direct=3 / weightb=1 / weightp=2 / keyint=250 / keyint_min=25 / scenecut=40 / intra_refresh=0 / rc_lookahead=60 / rc=2pass / mbtree=1 / bitrate=2100 / ratetol=1.0 / qcomp=0.80 / qpmin=10 / qpmax=51 / qpstep=4 / cplxblur=20.0 / qblur=0.5 / ip_ratio=1.10 / aq=1:0.50
Язык : English
Default : Нет
Forced : Нет
Аудио #1
Идентификатор : 2
Формат : AC-3
Формат/Информация : Audio Coding 3
Расширение режима : CM (complete main)
Параметр Endianness формата : Big
Идентификатор кодека : A_AC3
Продолжительность : 28 м.
Вид битрейта : Постоянный
Битрейт : 192 Кбит/сек
Каналы : 2 канала
Расположение каналов : Front: L R
Частота : 48,0 КГц
Битовая глубина : 16 бит
Метод сжатия : С потерями
Размер потока : 39,1 Мбайт (8%)
Язык : Russian
Default : Да
Forced : Нет
Аудио #2
Идентификатор : 3
Формат : AC-3
Формат/Информация : Audio Coding 3
Расширение режима : CM (complete main)
Параметр Endianness формата : Big
Идентификатор кодека : A_AC3
Продолжительность : 28 м.
Вид битрейта : Постоянный
Битрейт : 192 Кбит/сек
Каналы : 2 канала
Расположение каналов : Front: L R
Частота : 48,0 КГц
Битовая глубина : 16 бит
Метод сжатия : С потерями
Размер потока : 39,1 Мбайт (8%)
Язык : English
Default : Нет
Forced : Нет
Галерея
img
img
img
img
Файл: Маленькая Британия Little Britain Сезоны 1-3.torrent
Дата добавления:04 Апрель 2018, 14:09:30
Размер:9.96 GB
Комментариев:0
Хеш-сумма:C7BD6E7AA2012A77A10DF6A907EE0DEDC94CB0B6
Сидер замечен:16 Июнь 2018, 17:46:27
Просмотров:121
.torrent взят:69 раз(а)
Статус: проверено
Оценка:Никто ещё не поставил оценку
Теги:Маленькая Британия Little Britain

Комментарии

Пока комментариев нет

Добавить комментарий

Файлы для обмена предоставлены пользователями сайта. Администрация не несёт ответственности за их содержание. На сервере хранятся только торрент-файлы. Это значит, что мы не храним никаких нелегальных материалов, а так же материалов, охраняемых авторским правом.