Женя, Женечка и "Катюша" (1967) DVDRip-AVC

<<   |   ?¿   |  >>
Страна: СССР
Производство: Ленфильм
Жанр: мелодрама, комедия, военный
Год выпуска: 1967
Продолжительность: 01:20:05

Перевод: не тр*буется
Оригинальная аудиодорожка: русский
Cубтитры: нет

Режиссер: Владимир Мотыль

В ролях:
Олег Даль, Галина Фигловская, Михаил Кокшенов, Павел Морозенко, Георгий Штиль, Марк Бернес, Адольф Ильин, Б. Шнейдер, Г. Игнатова, Владимир Ильин, Любовь Малиновская, Николай Мартон, Саша Кавалеров, Булат Окуджава, И .Михайлов, В. Мусатов...

Описание:
Солдат Женя Колышкин — хрупкий интеллигент с Арбата — сплошное недоразумение в военных буднях. Отправившись в предновогоднюю ночь за посылкой, он натыкается на немецкий блиндаж. Ему удается спастить, но гауптвахта неизбежна.
Незавидную участь Жени скрашивает Женечка — связистка полка катюш. Пройдет время и они встретятся в громадном пустом доме в освобожденном городе, где сыграют в прятки… Одна из самых нежных картин о войне…

Википедия

Исходник: DVD5 R5
Тип релиза: DVDRip-AVC
Контейнер: MKV

Видео: 712->768x572 (4:3), 25 fps, H264 ~ 1420 kbps avg, 0.139 bit/pixel
Аудио: 48 kHz, Dolby AC3 5.1, 448 kbps

Общее
Полное имя : Zhenya,Zhenechka.i.Katyusha.1967.DVDRip-AVC_[Youtracker]_by_AVP Studio.mkv
Формат : Matroska
Версия формата : Version 2
Размер файла : 1,05 Гбайт
Продолжительность : 1 ч. 20 м.
Общий поток : 1870 Кбит/сек
Дата кодирования : UTC 2013-05-06 19:13:43
Программа кодирования : mkvmerge v5.0.1 ('Es ist Sommer') built on Nov 6 2011 16:23:40
Библиотека кодирования : libebml v1.2.2 + libmatroska v1.3.0

Видео
Идентификатор : 1
Формат : AVC
Формат/Информация : Advanced Video Codec
Профиль формата : High@L4.1
Параметр CABAC формата : Да
Параметр ReFrames формата : 11 кадров
Идентификатор кодека : V_MPEG4/ISO/AVC
Продолжительность : 1 ч. 20 м.
Битрейт : 1420 Кбит/сек
Ширина : 712 пикселей
Высота : 572 пикселя
Соотношение сторон : 4:3
Соотношение сторон в оригинале : 4:3
Частота кадров : 25,000 кадров/сек
Цветовое пространство : YUV
Субдискретизация насыщенности : 4:2:0
Битовая глубина : 8 бит
Тип развёртки : Прогрессивная
Бит/(Пиксели*Кадры) : 0.139
Размер потока : 793 Мбайт (74%)
Библиотека кодирования : x264 core 119 r2106 07efeb4
Настройки программы : cabac=1 / ref=11 / deblock=1:-2:-1 / analyse=0x3:0x113 / me=umh / subme=9 / psy=1 / psy_rd=1.00:0.20 / mixed_ref=1 / me_range=32 / chroma_me=1 / trellis=1 / 8x8dct=1 / cqm=0 / deadzone=21,11 / fast_pskip=0 / chroma_qp_offset=-3 / threads=3 / sliced_threads=0 / nr=0 / decimate=0 / interlaced=0 / bluray_compat=0 / constrained_intra=0 / bframes=8 / b_pyramid=2 / b_adapt=2 / b_bias=0 / direct=3 / weightb=1 / open_gop=0 / weightp=2 / keyint=250 / keyint_min=25 / scenecut=40 / intra_refresh=0 / rc_lookahead=60 / rc=2pass / mbtree=1 / bitrate=1420 / ratetol=1.0 / qcomp=0.60 / qpmin=0 / qpmax=69 / qpstep=4 / cplxblur=20.0 / qblur=0.5 / ip_ratio=1.40 / aq=1:1.00
Default : Да
Forced : Нет

Аудио
Идентификатор : 2
Формат : AC-3
Формат/Информация : Audio Coding 3
Расширение режима : CM (complete main)
Идентификатор кодека : A_AC3
Продолжительность : 1 ч. 20 м.
Вид битрейта : Постоянный
Битрейт : 448 Кбит/сек
Каналы : 6 каналов
Расположение каналов : Front: L C R, Side: L R, LFE
Частота : 48,0 КГц
Битовая глубина : 16 бит
Метод сжатия : С потерями
Задержка видео : 285 мс.
Размер потока : 257 Мбайт (24%)
Default : Да
Forced : Нет
Галерея
img
img
img
Файл: Zhenya,Zhenechka.i.Katyusha.1967.DVDRip-AVC.torrent
Дата добавления:31 Март 2018, 20:12:36
Размер:1.05 GB
Комментариев:0
Хеш-сумма:C3BBCF0A2EED4CE46F40ADA1ADC9998439E82182
Сидер замечен:12 Август 2018, 18:28:32
Просмотров:161
.torrent взят:128 раз(а)
Статус: проверено
Оценка:Никто ещё не поставил оценку
Теги:Владимир Мотыль СССР Ленфильм Олег Даль Галина Фигловская Михаил Кокшенов

Комментарии

Пока комментариев нет

Добавить комментарий

Файлы для обмена предоставлены пользователями сайта. Администрация не несёт ответственности за их содержание. На сервере хранятся только торрент-файлы. Это значит, что мы не храним никаких нелегальных материалов, а так же материалов, охраняемых авторским правом.