Любовь и голуби (Владимир Меньшов) (1984) BDRip-AVC

<<   |   ?¿   |  >>
Страна: СССР
Студия: Мосфильм
Жанр: мелодрама, комедия
Год выпуска: 1984
Продолжительность: 01:44:44
Субтитры: русские, английские

Режиссёр: Владимир Меньшов

В ролях: Александр Михайлов, Нина Дорошина, Людмила Гурченко, Сергей Юрский, Наталья Тенякова, Янина Лисовская, Игорь Лях, Лада Сизоненко, Владимир Меньшов

Описание: Ликвидируя неисправность лебедки, Василий Кузякин получил травму и путевку на юг. Встретил роковую женщину Раису Захаровну и... вернулся Вася с курорта не к себе в деревню, а в дом Раисы Захаровны. Началась для него новая жизнь, в которой было много непонятного и интересного, но не было дома, где остались Надя, дети и голуби...

pic pic Википедия

Качество видео: BDRip-AVC
Формат видео: MKV
Видео: 1136x640 at 23.976 fps, MPEG-4 AVC, ~2458 kbps
Аудио 1: 48 kHz, AC3, 3/2 (L,C,R,l,r) + LFE ch, ~384 kbps
Аудио 2: 48 kHz, AC3, 1/0 (C), ~96 kbps

Format : Matroska
Format version : Version 2
File size : 2.19 GiB
Duration : 1h 44mn
Overall bit rate : 2 997 Kbps
Movie name : Любовь и голуби (1984)
Encoded date : UTC 2016-04-22 16:57:06
Writing application : mkvmerge v3.4.0 ('Rapunzel') built on May 15 2010 09:38:20
Writing library : libebml v0.8.0 + libmatroska v0.9.0
Video
ID : 1
Format : AVC
Format/Info : Advanced Video Codec
Format profile : High@L4.1
Format settings, CABAC : Yes
Format settings, ReFrames : 9 frames
Codec ID : V_MPEG4/ISO/AVC
Duration : 1h 44mn
Bit rate : 2 458 Kbps
Width : 1 136 pixels
Height : 640 pixels
Display aspect ratio : 16:9
Frame rate mode : Constant
Frame rate : 23.976 fps
Color space : YUV
Chroma subsampling : 4:2:0
Bit depth : 8 bits
Scan type : Progressive
Bits/(Pixel*Frame) : 0.141
Stream size : 1.80 GiB (82%)
Title : MPEG-4 (AVC)
Writing library : x264 core 148 r2692 64f4e24
Encoding settings : cabac=1 / ref=9 / deblock=1:-2:-2 / analyse=0x3:0x113 / me=umh / subme=9 / psy=1 / psy_rd=1.10:0.00 / mixed_ref=1 / me_range=32 / chroma_me=1 / trellis=2 / 8x8dct=1 / cqm=0 / deadzone=21,11 / fast_pskip=0 / chroma_qp_offset=-2 / threads=3 / lookahead_threads=1 / sliced_threads=0 / nr=0 / decimate=1 / interlaced=0 / bluray_compat=0 / constrained_intra=0 / bframes=7 / b_pyramid=2 / b_adapt=2 / b_bias=0 / direct=1 / weightb=1 / open_gop=0 / weightp=2 / keyint=250 / keyint_min=23 / scenecut=40 / intra_refresh=0 / rc_lookahead=40 / rc=crf / mbtree=0 / crf=19.5 / qcomp=0.60 / qpmin=0 / qpmax=69 / qpstep=4 / vbv_maxrate=50000 / vbv_bufsize=62500 / crf_max=0.0 / nal_hrd=none / filler=0 / ip_ratio=1.45 / pb_ratio=1.20 / aq=1:1.00
Language : Russian
Default : No
Forced : No
Audio #1
ID : 2
Format : AC-3
Format/Info : Audio Coding 3
Mode extension : CM (complete main)
Format settings, Endianness : Big
Codec ID : A_AC3
Duration : 1h 44mn
Bit rate mode : Constant
Bit rate : 384 Kbps
Channel(s) : 6 channels
Channel positions : Front: L C R, Side: L R, LFE
Sampling rate : 48.0 KHz
Bit depth : 16 bits
Compression mode : Lossy
Stream size : 288 MiB (13%)
Title : AC3 5.1 @ 384 kbps
Language : Russian
Default : No
Forced : No
Audio #2
ID : 3
Format : AC-3
Format/Info : Audio Coding 3
Mode extension : CM (complete main)
Format settings, Endianness : Big
Codec ID : A_AC3
Duration : 1h 44mn
Bit rate mode : Constant
Bit rate : 96.0 Kbps
Channel(s) : 1 channel
Channel positions : Front: C
Sampling rate : 48.0 KHz
Bit depth : 16 bits
Compression mode : Lossy
Stream size : 71.9 MiB (3%)
Title : AC3 1.0 @ 96 kbps
Language : Russian
Default : No
Forced : No
Text #1
ID : 4
Format : UTF-8
Codec ID : S_TEXT/UTF8
Codec ID/Info : UTF-8 Plain Text
Title : RUS
Language : Russian
Default : No
Forced : No
Text #2
ID : 5
Format : UTF-8
Codec ID : S_TEXT/UTF8
Codec ID/Info : UTF-8 Plain Text
Title : ENG
Language : English
Default : No
Forced : No
Галерея
img
img
img
img
Файл: Любовь и голуби (Владимир Меньшов) [1984, мелодрама, комедия, BDRip-AVC] Sub.torrent
Дата добавления:20 Март 2018, 20:25:33
Размер:2.19 GB
Комментариев:0
Хеш-сумма:4ECECE6017C0FB10D5FD36C4E1563173AA8E451F
Сидер замечен:16 Июнь 2018, 17:58:49
Просмотров:125
.torrent взят:89 раз(а)
Статус: проверено
Оценка:Никто ещё не поставил оценку
Теги:Владимир Меньшов СССР Мосфильм Александр Михайлов Нина Дорошина Людмила Гурченко Сергей Юрский

Комментарии

Пока комментариев нет

Добавить комментарий

Файлы для обмена предоставлены пользователями сайта. Администрация не несёт ответственности за их содержание. На сервере хранятся только торрент-файлы. Это значит, что мы не храним никаких нелегальных материалов, а так же материалов, охраняемых авторским правом.