Варвара-Краса, длинная коса (1969) BDRip-AVC

<<   |   ?¿   |  >>
Информация о фильме
Название: Варвара-Краса, длинная коса
Год выхода: 1969
Страна: СССР
Студия: Киностудия имени М.Горького
Продолжительность: 01:20:24
Язык: Русский
Жанр: Сказка, детский, семейный
Режиссер: Александр Роу
В ролях: Михаил Пуговкин, Георгий Милляр, Анатолий Кубацкий, Лидия Королева, Алексей Катышев, Сергей Николаев, Татьяна Клюева, Варвара Попова, Александр Хвыля, Борис Сичкин, Валентина Ананьина, Вера Петрова, Анастасия Зуева, Лев Потемкин

Wiki | КиноПоиск

О фильме:
Жил да был царь Еремей. Отправился он в годовой поход, чтобы составить опись своего царства-государства. Наклонился он как-то к колодцу напиться, но тут его и схватил подводный царь Чудо-Юдо. Да потребовал выкуп за освобождение — такой, о чем Еремей не ведал и не гадал, что оно есть в его царстве. Царь согласился, еще не зная, что в его отсутствие царица родила ему сына. Фильм рассказывает о том, как несмотря на всевозможные коварства и интриги, Андрей рыбацкий сын и Варвара повстречались и полюбили друг друга, как царю Еремею пришлось краснеть за своего ленивого и глупого наследника, и как в конце концов все закончилось хорошо.

Файл
Кодек: h264
Качество: BDRip-AVC
Видео: MPEG-4 AVC, 3197 Кбит/с, 1024x440, 25.000 кадр/с

Аудио: АС3, 6 ch, 448 Кбит/с

Субтитры: Русские

Полное имя : Varvara.Krasa.Dlinnaja.Kosa.1969.x264.BDRip.(AVC).0ptimus.mkv
Формат : Matroska
Версия формата : Version 2
Размер файла : 2,05 Гбайт
Продолжительность : 1 ч. 20 м.
Общий поток : 3646 Кбит/сек
Название фильма : Варвара-Краса, длинная коса [1969] -=BDRip (AVC) by 0ptimus=-
Дата кодирования : UTC 2012-08-26 06:12:57
Программа кодирования : mkvmerge v5.7.0 ('The Whirlwind') built on Jul 8 2012 20:08:51
Библиотека кодирования : libebml v1.2.3 + libmatroska v1.3.0

Видео
Идентификатор : 1
Формат : AVC
Формат/Информация : Advanced Video Codec
Профиль формата : High@L4.1
Параметр CABAC формата : Да
Параметр ReFrames формата : 10 кадров
Идентификатор кодека : V_MPEG4/ISO/AVC
Продолжительность : 1 ч. 20 м.
Битрейт : 3197 Кбит/сек
Ширина : 1024 пикселя
Высота : 440 пикселей
Соотношение сторон : 2,35:1
Частота кадров : 25,000 кадров/сек
Цветовое пространство : YUV
Субдискретизация насыщенности : 4:2:0
Битовая глубина : 8 бит
Тип развёртки : Прогрессивная
Бит/(Пиксели*Кадры) : 0.284
Размер потока : 1,76 Гбайт (86%)
Библиотека кодирования : x264 core 125 r2200 999b753
Настройки программы : cabac=1 / ref=10 / deblock=1:-2:-1 / analyse=0x3:0x113 / me=umh / subme=11 / psy=1 / psy_rd=1.00:0.20 / mixed_ref=1 / me_range=32 / chroma_me=1 / trellis=2 / 8x8dct=1 / cqm=0 / deadzone=21,11 / fast_pskip=0 / chroma_qp_offset=-3 / threads=3 / lookahead_threads=1 / sliced_threads=0 / nr=0 / decimate=0 / interlaced=0 / bluray_compat=0 / constrained_intra=0 / bframes=8 / b_pyramid=2 / b_adapt=2 / b_bias=0 / direct=3 / weightb=1 / open_gop=0 / weightp=2 / keyint=250 / keyint_min=25 / scenecut=40 / intra_refresh=0 / rc_lookahead=40 / rc=2pass / mbtree=0 / bitrate=3197 / ratetol=1.0 / qcomp=0.60 / qpmin=0 / qpmax=69 / qpstep=4 / cplxblur=20.0 / qblur=0.5 / vbv_maxrate=50000 / vbv_bufsize=50000 / nal_hrd=none / ip_ratio=1.40 / pb_ratio=1.30 / aq=1:1.00
Язык : Russian
Default : Да
Forced : Да

Аудио
Идентификатор : 2
Формат : AC-3
Формат/Информация : Audio Coding 3
Расширение режима : CM (complete main)
Параметр Endianness формата : Big
Идентификатор кодека : A_AC3
Продолжительность : 1 ч. 20 м.
Вид битрейта : Постоянный
Битрейт : 448 Кбит/сек
Каналы : 6 каналов
Расположение каналов : Front: L C R, Side: L R, LFE
Частота : 48,0 КГц
Битовая глубина : 16 бит
Метод сжатия : С потерями
Размер потока : 258 Мбайт (12%)
Язык : Russian
Default : Да
Forced : Да

Текст
Идентификатор : 3
Формат : UTF-8
Идентификатор кодека : S_TEXT/UTF8
Идентификатор кодека/Информация : UTF-8 Plain Text
Язык : Russian
Default : Нет
Forced : Нет

Меню
00:00:00.000 : :Chapter 01
00:00:06.879 : :Chapter 02
00:07:40.000 : :Chapter 03
00:18:30.280 : :Chapter 04
00:27:59.560 : :Chapter 05
00:38:16.640 : :Chapter 06
00:48:13.800 : :Chapter 07
00:58:46.080 : :Chapter 08
01:08:40.920 : :Chapter 09
01:20:24.400 : :Chapter 10

Файл: Varvara.Krasa.Dlinnaja.Kosa.1969.x264.BDRip.torrent
Дата добавления:17 Май 2016, 19:14:23
Размер:2.05 GB
Комментариев:0
Хеш-сумма:46D78C2D4270F18E4A6D292557405FC025A7A979
Сидер замечен:12 Август 2018, 18:28:33
Просмотров:457
.torrent взят:133 раз(а)
Статус: проверено
Оценка:Никто ещё не поставил оценку
Теги:Александр Роу Михаил Пуговкин Георгий Милляр СССР

Комментарии

Пока комментариев нет

Добавить комментарий

Файлы для обмена предоставлены пользователями сайта. Администрация не несёт ответственности за их содержание. На сервере хранятся только торрент-файлы. Это значит, что мы не храним никаких нелегальных материалов, а так же материалов, охраняемых авторским правом.