Дмитрий Шостакович - Симфония №7 "Ленинградская" (2004) FLAC

<<   |   ?¿   |  >>
Название: Дмитрий Шостакович - Симфония №7 "Ленинградская"
Год выпуска диска: 2004
Жанр: Классическая музыка
Формат/Кодек: FLAC (image+.cue)
Битрейт аудио: lossless
Продолжительность: 1:14:57

Трек-лист:
1. Allegretto (27:35)
2. Moderate (Poco Allegretto) (10:59)
3. Adagio (15:52)
4. Allegro Non Troppo (20:32)

Дополнительная информация:
Академический симфонический оркестр Ленинградской государственной филармонии.
Дирижер: Евгений Мравинский.
Запись симфонии была сделана в Ленинграде в 1953г. (студия, моно).

Exact Audio Copy V0.99 prebeta 5 from 4. May 2009

EAC extraction logfile from 1. October 2009, 12:33

Dmitri Shostakovitch / Symphonies No. 7 - USSR Ministry of Culture Symphony Orch. - Gennady Rozhdestvenski

Used drive  : ASUS    DRW-1604P   Adapter: 0  ID: 1

Read mode               : Secure
Utilize accurate stream : Yes
Defeat audio cache      : Yes
Make use of C2 pointers : No

Read offset correction                      : 48
Overread into Lead-In and Lead-Out          : No
Fill up missing offset samples with silence : Yes
Delete leading and trailing silent blocks   : No
Null samples used in CRC calculations       : Yes
Used interface                              : Installed external ASPI interface

Used output format              : User Defined Encoder
Selected bitrate                : 768 kBit/s
Quality                         : High
Add ID3 tag                     : No
Command line compressor         : C:\Program Files\Exact Audio Copy\FLAC\FLAC.EXE
Additional command line options : -8 -V -T "ARTIST=%a" -T "TITLE=%t" -T "ALBUM=%g" -T "DATE=%y" -T "TRACKNUMBER=%n" -T "GENRE=%m" -T "COMMENT=EAC FLAC -8" %s


TOC of the extracted CD

     Track |   Start  |  Length  | Start sector | End sector
    ---------------------------------------------------------
        1  |  0:00.00 | 27:35.10 |         0    |   124134 
        2  | 27:35.10 | 10:58.47 |    124135    |   173531 
        3  | 38:33.57 | 15:51.38 |    173532    |   244894 
        4  | 54:25.20 | 20:31.70 |    244895    |   337289 


Range status and errors

Selected range

     Filename C:\Documents and Settings\Admin\Рабочий стол\Новая папка\Dmitri Shostakovitch - Symphonies No. 7 - USSR Ministry of Culture Symphony Orch. - Gennady Rozhdestvenski.wav

     Peak level 98.0 %
     Range quality 100.0 %
     Test CRC 0DF51311
     Copy CRC 0DF51311
     Copy OK

No errors occurred

End of status report
REM GENRE Classical
REM DATE 1984
REM DISCID 32119104
REM COMMENT "ExactAudioCopy v0.99pb5"
PERFORMER "Dmitri Shostakovich"
TITLE "Symphony No. 7 - USSR Ministry of Culture Symphony Orch. - Gennady Rozhdest..."
FILE "Dmitri Shostakovich - Symphony No. 7 - USSR Ministry of Culture Symphony Orch. - Gennady Rozhdestvenski.flac" WAVE
  TRACK 01 AUDIO
    TITLE "Symphony No. 7 in C Major op.60 'Leningrad' - I. Allegretto"
    PERFORMER "Dmitri Shostakovich"
    INDEX 01 00:00:00
  TRACK 02 AUDIO
    TITLE "Symphony No. 7 in C Major op.60 'Leningrad' - II. Moderato (poco allegretto)"
    PERFORMER "Dmitri Shostakovich"
    INDEX 01 27:35:10
  TRACK 03 AUDIO
    TITLE "Symphony No. 7 in C Major op.60 'Leningrad' - III. Adagio"
    PERFORMER "Dmitri Shostakovich"
    INDEX 01 38:33:57
  TRACK 04 AUDIO
    TITLE "Symphony No. 7 in C Major op.60 'Leningrad' - IV. Allegro non troppo"
    PERFORMER "Dmitri Shostakovich"
    INDEX 01 54:25:20
Файл: Dmitrij_Shostakovich_-_Simfonija_7_Leningradska.torrent
Дата добавления:27 Август 2016, 12:36:04
Размер:336.26 MB
Комментариев:0
Хеш-сумма:682B43D38B97AFCC8168647350530919129C56EF
Сидер замечен:Вчера в 20:47:30
Просмотров:530
.torrent взят:152 раз(а)
Статус: проверено
Оценка:Никто ещё не поставил оценку
Теги:Дмитрий Шостакович

Комментарии

Пока комментариев нет

Добавить комментарий

Файлы для обмена предоставлены пользователями сайта. Администрация не несёт ответственности за их содержание. На сервере хранятся только торрент-файлы. Это значит, что мы не храним никаких нелегальных материалов, а так же материалов, охраняемых авторским правом.