Великая война [18 серий из 18] (2010) DVDRip

<<   |   ?¿   |  >>
Оригинальное название: Великая война
Год выпуска: 2010
Жанр: Документальный
Режиссер / Телекомпания: Анна Граждан / Россия, Первый канал / Star Media / Babich-design
Озвучивание: Оригинальное
Субтитры: Отсутствуют

Описание:
Проект "Великая война" посвящен 65-й годовщине Великой Победы Фильм рассказывает о главных событиях и сражениях Великой Отечественной войны. Уникальность проекта в широком использовании компьютерной графики в сочетании с кинохроникой военных лет. Благодаря новейшим технологиям зритель, даже неискушенный в вопросах истории, привычный к современному киноязыку, получает возможность, с одной стороны, разобраться в подробностях событий, с другой, - в полной мере ощутить масштабность и драматизм великой войны.

Продолжительность: 18 х ~00:49:00

Дата российской премьеры: 29 марта 2010
Дата выхода DVD релиза: 13 апреля 2010, «Первая Видеокомпания»

Скриншоты


Видеокодек: Xvid
Битрейт видео: ~1720 Kb/s
Размер кадра: 720x384
Качество видео: DVDRip
Аудиокодек: AC3 2.0
Битрейт аудио: 192 Kb/s
MediaInfo:
General
Format : AVI
Format/Info : Audio Video Interleave
File size : 700 MiB
Duration : 50mn 54s
Overall bit rate : 1 921 Kbps
Writing application : VirtualDubMod 1.5.10.2 (build 2540/release)
Writing library : VirtualDubMod build 2540/release

Video
ID : 0
Format : MPEG-4 Visual
Format profile : Advanced Simple@L5
Format settings, BVOP : 4
Format settings, QPel : No
Format settings, GMC : No warppoints
Format settings, Matrix : Custom
Codec ID : XVID
Codec ID/Hint : XviD
Duration : 50mn 54s
Bit rate : 1 720 Kbps
Width : 720 pixels
Height : 384 pixels
Display aspect ratio : 1.875
Frame rate : 25.000 fps
Color space : YUV
Chroma subsampling : 4:2:0
Bit depth : 8 bits
Scan type : Progressive
Compression mode : Lossy
Bits/(Pixel*Frame) : 0.249
Stream size : 626 MiB (90%)
Writing library : XviD 1.2.1 (UTC 2008-12-04)

Audio
ID : 1
Format : AC-3
Format/Info : Audio Coding 3
Mode extension : CM (complete main)
Codec ID : 2000
Duration : 50mn 54s
Bit rate mode : Constant
Bit rate : 192 Kbps
Channel(s) : 2 channels
Channel positions : Front: L R
Sampling rate : 48.0 KHz
Bit depth : 16 bits
Compression mode : Lossy
Stream size : 69.9 MiB (10%)
Alignment : Split accross interleaves
Interleave, duration : 40 ms (1.00 video frame)
Interleave, preload duration : 500 ms
Фильм 01-й. "Барбаросса"
Фильм 02-й. "Киев 1941"
Фильм 03-й. "Оборона Севастополя"
Фильм 04-й. "Битва за Москву"
Фильм 05-й. "Блокада Ленинграда"
Фильм 06-й. "Ржев"
Фильм 07-й. "Сталинград"
Фильм 08-й. "Битва за Кавказ"
Фильм 09-й. "Курская дуга"
Фильм 10-й. "От Днепра до Одера"
Фильм 11-й. "Операции "Багратион""
Фильм 12-й. "Битва за воздух"
Фильм 13-й. "Война на море"
Фильм 14-й. "Партизаны"
Фильм 15-й. "Агентурная разведка"
Фильм 16-й. "Битва за Германию"
Фильм 17-й. "Битва за Берлин"
Фильм 18-й. "Война с Японией"
Файл: Великая война [18 серий из 18] (2010) DVDRip.torrent
Дата добавления:12 Апрель 2015, 09:46:12
Размер:12.3 GB
Комментариев:1
Хеш-сумма:4519DD07A16B77CAC8B66461B504D4D5CE4718C9
Сидер замечен:Сегодня в 05:50:25
Просмотров:6841
.torrent взят:2100 раз(а)
Статус: проверено
Оценка:Никто ещё не поставил оценку
Теги:Война Вторая Мировая война Великая Отечественная война

Комментарии

inter

  • Царь
  • Крутой чатланин
  • *****
  • Пол: Мужской
Ответ #1 - 25 Август 2015, 20:58:41
Когда Германия подписывала капитуляцию, её принимали представители СССР, США и Франции. Немецкий генерал-полковник Альфред Йодль передал бумаги Жукову и, показывая на американского и французского представителей, с иронией спросил: «А эти, что, тоже нас победили?»

http://vk.com/interst_facts

Файлы для обмена предоставлены пользователями сайта. Администрация не несёт ответственности за их содержание. На сервере хранятся только торрент-файлы. Это значит, что мы не храним никаких нелегальных материалов, а так же материалов, охраняемых авторским правом.