Андрей Губин - Время романтиков (2014) APE

<<   |   ?¿   |  >>
Жанр: Pop
Год выпуска диска: 2004
Производитель диска: Россия
Аудио кодек: APE
Тип рипа: image+.cue
Битрейт аудио: lossless
Продолжительность: 01:13:35

Википедия | Сайт

Трэклист:
01. Время романтиков [0:04:40.54]
02. Лишь для тебя [0:03:40.46]
03. Девушки как звезды [0:04:03.23]
04. Танцы [0:04:02.46]
05. К Алине [0:05:23.11]
06. Будь со мной [0:04:22.47]
07. Убегает лето [0:04:21.73]
08. Облака [0:03:24.00]
09. Плачь, любовь [0:03:56.46]
10. Зима - холода [0:03:53.45]
11. День и ночь [0:04:00.05]
12. Птица [0:04:01.30]
13. Забытый тобой [0:03:37.45]
14. Милая моя далеко [0:04:13.68]
15. Ночь [0:03:41.65]
16. Мальчик-бродяга [0:03:11.66]
17. Лиза [0:04:19.66]
18. Время романтиков (дуэт с Сашей Балакиревой) [0:04:39.59]

Доп. информация:
Долгожданный новый релиз от самого обаятельного принца российской эстрады Андрея Губина - "Время романтиков: the best" поможет всем романтическим натурам попасть в свою собственную сказку.
Альбом представляет 17 лучших хитов, написанных Андреем за 12 лет его сценической карьеры: от трогательной "Лизы" и лирической "Птицы" до зажигательных "Танцев" и "Девушек как звезд".
Песни, вошедшие в альбом, демонстрируют все стороны таланта Губина. Мальчик-бродяга вырос, но ему удалось остаться таким же искренним и утонченным, как и в начале своего пути. Каким образом? Просто он живет по законам своего времени - Времени Романтиков.
Любимчик девчонок и требовательный профессионал, Губин вкладывает в свои песни трепетные чувства и озорное веселье, а в продуманных аранжировках всегда ощущается тепло живой души.
В порядке эксклюзивного новогоднего сюрприза на пластинке присутствуют три трека, которые издаются впервые: радиохит "Лишь для тебя" и "Время романти-ков" в двух вариантах - сольном авторском и дуэтном, вместе со "звёздной фабриканткой" Сашей Балакиревой.
(c) ozon.ru

Exact Audio Copy V0.99 prebeta 4 from 23. January 2008
Отчёт EAC об извлечении, выполненном 17. июня 2008, 23:43
Андрей Губин / Время романтиков (The Best)
Дисковод: ASUS DRW-1608P2S Adapter: 0 ID: 0
Режим чтения : Достоверность
Использование точного потока : Да
Отключение кэша аудио : Да
Использование указателей C2 : Нет
Коррекция смещения при чтении : 48
Способность читать области Lead-in и Lead-out : Нет
Заполнение пропущенных сэмплов тишиной : Да
Удаление блоков с тишиной в начале и конце : Нет
При вычислениях CRC использовались нулевые сэмплы : Да
Интерфейс : Установленный внешний ASPI-интерфейс
Выходной формат : Внутренние WAV-операции
Формат сэмплов : 44.100 Гц; 16 бит; стерео
TOC извлечённого CD
Трек | Старт | Длительность | Начальный сектор | Конечный сектор
---------------------------------------------------------------------
1 | 0:00.00 | 4:40.54 | 0 | 21053
2 | 4:40.54 | 3:40.46 | 21054 | 37599
3 | 8:21.25 | 4:03.23 | 37600 | 55847
4 | 12:24.48 | 4:02.46 | 55848 | 74043
5 | 16:27.19 | 5:23.11 | 74044 | 98279
6 | 21:50.30 | 4:22.47 | 98280 | 117976
7 | 26:13.02 | 4:21.73 | 117977 | 137624
8 | 30:35.00 | 3:24.00 | 137625 | 152924
9 | 33:59.00 | 3:56.46 | 152925 | 170670
10 | 37:55.46 | 3:53.45 | 170671 | 188190
11 | 41:49.16 | 4:00.05 | 188191 | 206195
12 | 45:49.21 | 4:01.30 | 206196 | 224300
13 | 49:50.51 | 3:37.45 | 224301 | 240620
14 | 53:28.21 | 4:13.68 | 240621 | 259663
15 | 57:42.14 | 3:41.65 | 259664 | 276303
16 | 61:24.04 | 3:11.66 | 276304 | 290694
17 | 64:35.70 | 4:19.66 | 290695 | 310185
18 | 68:55.61 | 4:39.59 | 310186 | 331169
Характеристики диапазона извлечения и сообщения об ошибках
Выбранный диапазон
Имя файла D:\APEs-Music\Андрей Губин - Время романтиков (The Best).wav
Пиковый уровень 84.1 %
Качество диапазона 99.9 %
CRC копии 697CFC09
Копирование... OK
Ошибок не произошло
Конец отчёта

Включает все обложки в формате - 600dpi.

=-=-=-=-=-=-=-=-=-=-=-=-=-=-=-=-=-=-=-=-=-=-=-=-=-=-=-=-=-=-=-=-=-=-=-=
Данная раздача является исключительно ознакомительной и
стимулирующей к приобретению легального, лицензионного диска
исполнителя.
=-=-=-=-=-=-=-=-=-=-=-=-=-=-=-=-=-=-=-=-=-=-=-=-=-=-=-=-=-=-=-=-=-=-=-=
Файл: Андрей Губин - Время романтиков.torrent
Дата добавления:01 Октябрь 2016, 13:58:50
Размер:491.54 MB
Комментариев:0
Хеш-сумма:E8EB8A9A453A03FC0FCD889E2919E3A0604CF614
Сидер замечен:Сегодня в 14:56:33
Просмотров:275
.torrent взят:74 раз(а)
Статус: проверено
Оценка:Никто ещё не поставил оценку
Теги:Андрей Губин Best mp3

Комментарии

Пока комментариев нет

Добавить комментарий

Файлы для обмена предоставлены пользователями сайта. Администрация не несёт ответственности за их содержание. На сервере хранятся только торрент-файлы. Это значит, что мы не храним никаких нелегальных материалов, а так же материалов, охраняемых авторским правом.